imdb
rating

6.1
90210

90210 (2008)

Drama

Full description

90210.-.S04E02.-.Ora.Di.Punta.720p.ITA-ENG.[Sorround.ReMux].by.olderz.mkv

Size 1.696 GB   0 seeders     Added 2013-05-14 16:49:35

Stream torrent
Starting‥ You need BitLord! Get it from 1BitLord.com
To download or stream you need BitLord. Visit them at BitLord.com
90210 - Stagione/Season 4 - Episodio/Episode 2
For more information visit: http://forum.tntvillage.scambioetico.org/index.php?showtopic=336677
.: Screens :.
http://forum.tntvillage.scambioetico.org/index.php?showtopic=336677
.: Screens :.
Media file info:
Complete name : 90210.-.S04E02.-.Ora.Di.Punta.720p.ITA-ENG.[Sorround.ReMux].by.olderz.mkv
Format : Matroska
File size : 1.58 GiB
Duration : 41mn 35s
Overall bit rate : 5 437 Kbps
Movie name : 90210 - S04E02 - Ora Di Punta - 720p ITA-ENG [Sorround ReMux] by olderz
Encoded date : UTC 2013-03-27 14:02:49
Writing application : mkvmerge v6.1.0 ('Old Devil') built on Mar 2 2013 14:32:37
Writing library : libebml v1.3.0 + libmatroska v1.4.0
Video
ID : 1
Format : AVC
Format/Info : Advanced Video Codec
Format profile : [email protected]
/*  */

Format settings, CABAC : No
Format settings, ReFrames : 2 frames
Format settings, GOP : M=2, N=34
Codec ID : V_MPEG4/ISO/AVC
Duration : 41mn 35s
Bit rate : 4 062 Kbps
Width : 1 280 pixels
Height : 720 pixels
Display aspect ratio : 16:9
Frame rate : 23.976 fps
Color space : YUV
Chroma subsampling : 4:2:0
Bit depth : 8 bits
Scan type : Progressive
Bits/(Pixel*Frame) : 0.184
Stream size : 1.18 GiB (75%)
Title : Video
Language : English
Color primaries : BT.709-5, BT.1361, IEC 61966-2-4, SMPTE RP177
Transfer characteristics : BT.709-5, BT.1361
Matrix coefficients : BT.709-5, BT.1361, IEC 61966-2-4 709, SMPTE RP177
Audio #1
ID : 2
Format : DTS
Format/Info : Digital Theater Systems
Codec ID : A_DTS
Duration : 41mn 35s
Bit rate mode : Constant
Bit rate : 755 Kbps
Channel(s) : 6 channels
Channel positions : Front: L C R, Side: L R, LFE
Sampling rate : 48.0 KHz
Bit depth : 16 bits
Compression mode : Lossy
Stream size : 224 MiB (14%)
Title : DTS 5.1 @ 768 kbps
Language : Italian
Audio #2
ID : 3
Format : MPEG Audio
Format version : Version 1
Format profile : Layer 3
Mode : Joint stereo
Mode extension : MS Stereo
Codec ID : A_MPEG/L3
Codec ID/Hint : MP3
Duration : 41mn 13s
Bit rate mode : Constant
Bit rate : 128 Kbps
Channel(s) : 2 channels
Sampling rate : 48.0 KHz
Compression mode : Lossy
Stream size : 37.7 MiB (2%)
Title : MP3 Stereo @ 128 kbps
Writing library : LAME3.99r
Encoding settings : -m j -V 4 -q 3 -lowpass 17 -b 128
Language : Italian
Audio #3
ID : 4
Format : AC-3
Format/Info : Audio Coding 3
Mode extension : CM (complete main)
Codec ID : A_AC3
Duration : 41mn 35s
Bit rate mode : Constant
Bit rate : 384 Kbps
Channel(s) : 6 channels
Channel positions : Front: L C R, Side: L R, LFE
Sampling rate : 48.0 KHz
Bit depth : 16 bits
Compression mode : Lossy
Delay relative to video : 3ms
Stream size : 114 MiB (7%)
Title : AC3 5.1 @384 kbps
Language : English
Text #1
ID : 5
Format : ASS
Codec ID : S_TEXT/ASS
Codec ID/Info : Advanced Sub Station Alpha
Compression mode : Lossless
Title : ASS [semi-transparent]
Language : Italian
Text #2
ID : 6
Format : ASS
Codec ID : S_TEXT/ASS
Codec ID/Info : Advanced Sub Station Alpha
Compression mode : Lossless
Title : ASS [semi-transparent]
Language : English
Text #3
ID : 7
Format : UTF-8
Codec ID : S_TEXT/UTF8
Codec ID/Info : UTF-8 Plain Text
Title : SRT [classic]
Language : Italian
Text #4
ID : 8
Format : UTF-8
Codec ID : S_TEXT/UTF8
Codec ID/Info : UTF-8 Plain Text
Title : SRT [classic]
Language : It
90210.-.S04E02.-.Ora.Di.Punta.720p.ITA-ENG.[Sorround.ReMux].by.olderz.mkv 1.696 GB
Gathering some info...

Register and log in Isohunt and see no captcha anymore!

4000 symbols left
Hash 0e3c8a6d049cc00601bdc9e7448a7d76bdad1423

Related torrents for "90210.-.S04E02.-.Ora.Di.Punta.720p.ITA-ENG.[Sorround.ReMux].by.olderz.mkv"