imdb
rating

5.3
A Good Day to Die Hard

A Good Day to Die Hard (2013)

Action, Thriller

Full description

A Good Day To Die Hard 2013 HDRip AAC x264-SSDD

Size 524.715 MB   0 seeders     Added 2013-05-14 16:58:51

Stream torrent
Starting‥ You need BitLord! Get it from BitLord.com
To download or stream you need BitLord. Visit them at BitLord.com
							Source - A.Good.Day.to.Die.Hard.2013.HDRip.x264.AC3-FooKaS (Thumbs Up + Respect)
NOTES - Enjoy 
General
Complete name : A Good Day To Die Hard 2013 HDRip AAC x264-SSDD.mp4
Format : MPEG-4
Format profile : Base Media
Codec ID : isom
File size : 500 MiB
Duration : 1h 38mn
Overall bit rate mode : Variable
Overall bit rate : 713 Kbps
Video
ID : 1
Format : AVC
Format/Info : Advanced Video Codec
Format profile : High@L4.1
Format settings, CABAC : Yes
Format settings, ReFrames : 4 frames
Codec ID : avc1
Codec ID/Info : Advanced Video Coding
Duration : 1h 38mn
Bit rate : 645 Kbps
Maximum bit rate : 1 940 Kbps
Width : 720 pixels
Height : 384 pixels
Display aspect ratio : 1.85:1
Frame rate mode : Constant
Frame rate : 23.976 fps
Color space : YUV
Chroma subsampling : 4:2:0
Bit depth : 8 bits
Scan type : Progressive
Bits/(Pixel*Frame) : 0.097
Stream size : 453 MiB (91%)
Writing library : x264 core 130 r2273 b3065e6
Audio
ID : 2
Format : AAC
Format/Info : Advanced Audio Codec
Format profile : LC
Codec ID : 40
Duration : 1h 37mn
Bit rate mode : Variable
Bit rate : 64.0 Kbps
Maximum bit rate : 73.5 Kbps
Channel(s) : 2 channels
Channel positions : Front: L R
Sampling rate : 48.0 KHz
Compression mode : Lossy
Stream size : 44.7 MiB (9%)
Screens:
						
A Good Day To Die Hard 2013 HDRip AAC x264-SSDD/A Good Day To Die Hard 2013 HDRip AAC x264-SSDD.mp4 524.637 MB
A Good Day To Die Hard 2013 HDRip AAC x264-SSDD/SUBS/A Good Day To Die Hard 2013 HDRip AAC x264-SSDD.srt 78.367 KB
A Good Day To Die Hard 2013 HDRip AAC x264-SSDD/www.RARBG.com.txt 45 B
Gathering some info...

Register and log in Isohunt and see no captcha anymore!

4000 symbols left
Hash 3ed22905f67411bef79cfa34aea08e844dfadff8

Related torrents for "A Good Day To Die Hard 2013 HDRip AAC x264-SSDD"

Torrent search:

x264 hd 2013