Soldier of God 2005.1080p.BluRay.x264 . NVEE

Size 1.511 GB   0 seeders     Added 2013-05-14 19:41:34

Stream torrent
Starting‚Ä• You need BitLord! Get it from BitLord.com
To download or stream you need BitLord. Visit them at BitLord.com
							
FULL_INFOs
99.99% >>> SYNCED GUARANTEED 
Source : BluRay ~ 1080p
My Media Player of Choice "VLC Media Player"
Spoken Language : English Only
Audio : 2 ~ Channels Only
Only @ https://kat.ph/user/.NVEE/http://www.imdb.com/title/tt0458485/
Subs Info : MULTI_SUBShttp://www.subtitleseeker.com/0458485/Soldier+of+God/Subtitles/
36 Subtitles In 10 Languages Use Link Provided http://www.subtitleseeker.com/0458485/Soldier+of+God/Subtitles/
36 Subtitles In 10 Languages Only @ SubtitleSeekerhttp://www.subtitleseeker.com/0458485/Soldier+of+God/Subtitles/
All .srt subs can be turned On/Offhttp://www.imdb.com/title/tt0458485/
--------------------------------------------------------------------------------
General 
Complete name : Soldier of God 2005.1080p.BluRay.x264 . NVEE.mp4 
Format : MPEG-4 
Format profile : Base Media 
Codec ID : isom 
File size : 1.41 GiB 
Duration : 1h 34mn 
Overall bit rate : 2 126 Kbps 
Encoded date : UTC 2013-05-12 20:43:15 
Tagged date : UTC 2013-05-12 20:43:15 
Video 
ID : 1 
Format : AVC 
Format/Info : Advanced Video Codec 
Format profile : High@L5.0 
Format settings, CABAC : Yes 
Format settings, ReFrames : 8 frames 
Codec ID : avc1 
Codec ID/Info : Advanced Video Coding 
Duration : 1h 34mn 
Bit rate : 1 936 Kbps 
Maximum bit rate : 9 068 Kbps 
Width : 1 920 pixels 
Height : 816 pixels 
Display aspect ratio : 2.35:1 
Frame rate mode : Constant 
Frame rate : 24.000 fps 
Color space : YUV 
Chroma subsampling : 4:2:0 
Bit depth : 8 bits 
Scan type : Progressive 
Bits/(Pixel*Frame) : 0.051 
Stream size : 1.28 GiB (91%) 
Writing library : x264 core 130 r2273 b3065e6 
Encoded date : UTC 2013-05-12 11:12:42 
Tagged date : UTC 2013-05-12 20:45:22 
Color primaries : Generic film 
Audio 
ID : 2 
Format : AC-3 
Format/Info : Audio Coding 3 
Mode extension : CM (complete main) 
Format settings, Endianness : Big 
Codec ID : ac-3 
Duration : 1h 34mn 
Bit rate mode : Constant 
Bit rate : 192 Kbps 
Channel(s) : 2 channels 
Channel positions : Front: L R 
Sampling rate : 48.0 KHz 
Bit depth : 16 bits 
Compression mode : Lossy 
Delay relative to video : 83ms 
Stream size : 130 MiB (9%) 
Title : 1080p.BluRay.x264 . NVEE - [0] English.ac3#trackID=1:lang=en@GPAC0.5.1-DEV-rev4283 
Language : English 
Encoded date : UTC 2013-05-12 20:44:57 
Tagged date : UTC 2013-05-12 20:45:22 Full Synopsis Cast & Crew
Director W.D. Hogan's sweeping period epic Soldier of God unfurls in the Middle East of the late Twelfth Century. As the story opens, the Knights Templar, a religious order originally assigned to protect Christian pilgrims, has disintegrated from chivalric order and justice into dissolute chaos, as its individual factions bloodthirstily vie with one another for power and control. Rene (Tim Abell, a 'warrior-monk' who counts himself among the Templars' ranks, watches as the Christian army surrounding him is all but extinguished in the 1187 battle at the Horns of Hattin. At the last minute, with his own execution only minutes away, Rene is abducted by Brigands on the battlefield, then manages to escape his captors and flees into the desert, where he faces almost certain death from dehydration. At the last minute, Hasan, an enigmatic Muslim traveler, saves Rene's life, and Rene thanks his new friend, in return, by saving him from Saladin's invading forces. The two ultimately seek refuge at the home of the widow Sohelia, who nurses the injured Hasan back to full health. Meanwhile, Rene finds himself drawn to the vicissitudes of simple life in this newfound oasis, and to the temptation of sacrificing his vows as a crusader for a romance with Sohelia. But Hasan holds a long-buried secret from his past that will soon bring Saladin's armies raining down onto Sohelia's home - igniting a violent cataclysm that will change the lives of Rene and Hasan, irrevocably. William Mendieta, Mapi Galan, Nicholas Kadi and Scott Cleverdon co-star; Kathryn Kuhlen and producer Mir Bahmanyar co-authored the script. ~ Nathan Southern, Rovi
						
Soldier of God 2005.1080p.BluRay.x264 . NVEE/Soldier of God 2005.1080p.BluRay.x264 . NVEE.mp4 1.511 GB
Soldier of God 2005.1080p.BluRay.x264 . NVEE/5099374714_ec6ebdc278_z.jpg 175.694 KB
Soldier of God 2005.1080p.BluRay.x264 . NVEE/4175672413_12c683cb67.jpg 93.763 KB
Gathering some info...

Register and log in Isohunt and see no captcha anymore!

4000 symbols left
Hash 02562b842a7457886abdcb79315d066608eabd53