imdb
rating

6.9
Warm Bodies

Warm Bodies (2013)

Comedy, Horror, Romance

Full description
quality   bd dvdrip x264 telesync

Warm.Bodies.2013WEBRip XViD juggs Verified

Size 742.69 MB   4 seeders     Added 2013-05-14 19:50:35

Stream torrent
Starting‥ You need BitLord! Get it from BitLord.com
10
To download or stream you need BitLord. Visit them at BitLord.com
Source : WEBiOS(Thanks)
http://www.imdb.com/title/tt1588173/
Format : AVI
Format/Info : Audio Video Interleave
File size : 698 MiB
Duration : 1h 37mn
Overall bit rate : 998 Kbps
Writing library : VirtualDub build 32842/release
Video
ID : 0
Format : MPEG-4 Visual
Format profile : Advanced Simple@L5
Format settings, BVOP : 2
Format settings, QPel : No
Format settings, GMC : No warppoints
Format settings, Matrix : Default (H.263)
Muxing mode : Packed bitstream
Codec ID : XVID
Codec ID/Hint : XviD
Duration : 1h 37mn
Bit rate : 860 Kbps
Width : 640 pixels
Height : 272 pixels
Display aspect ratio : 2.35:1
Frame rate : 23.976 fps
Color space : YUV
Chroma subsampling : 4:2:0
Bit depth : 8 bits
Scan type : Progressive
Compression mode : Lossy
Bits/(Pixel*Frame) : 0.206
Stream size : 602 MiB (86%)
Writing library : XviD 1.2.0.dev47 (UTC 2006-11-01)
Audio
ID : 1
Format : MPEG Audio
Format version : Version 1
Format profile : Layer 3
Codec ID : 55
Codec ID/Hint : MP3
Duration : 1h 37mn
Bit rate mode : Constant
Bit rate : 128 Kbps
Channel(s) : 2 channels
Sampling rate : 44.1 KHz
Compression mode : Lossy
Stream size : 89.5 MiB (13%)
Alignment : Split accross interleaves
Interleave, duration : 42 ms (1.00 video frame)
Interleave, preload duration : 500 ms
Writing library : LAME3.99r
Encoding settings : -m s -V 4 -q 3 -lowpass 17 -b 128
Warm.Bodies.2013WEBRip XViD juggs/Torrent Downloaded From ExtraTorrent.com.txt 339 B
Warm.Bodies.2013WEBRip XViD juggs/Warm.Bodies.2013WEBRip XViD juggs.avi 731.536 MB
Warm.Bodies.2013WEBRip XViD juggs/sample.avi 11.153 MB
Gathering some info...

Register and log in Isohunt and see no captcha anymore!

4000 symbols left
Hash 30ce6bbc7b6cfa9c48fde0924e4c3b96dc161b3b

Related torrents for "Warm.Bodies.2013WEBRip XViD juggs"