imdb
rating

5.3
A Good Day to Die Hard

A Good Day to Die Hard (2013)

Action, Thriller

Full description

A Good Day To Die Hard 2013 720p WEB-DL 6CH AAC x264-SSDD (HQ)

Size 2.362 GB   0 seeders     Added 2013-05-14 19:59:35

Stream torrent
Starting‥ You need BitLord! Get it from BitLord.com
To download or stream you need BitLord. Visit them at BitLord.com
							Source - A.Good.Day.To.Die.Hard.2013.720p.WEB-DL.x264-PSiG (Thumbs Up + Respect)
NOTES - Enjoy.
General
Complete name : A Good Day To Die Hard 2013 720p WEB-DL 6CH AAC x264-SSDD (HQ).mp4
Format : MPEG-4
Format profile : Base Media
Codec ID : isom
File size : 2.20 GiB
Duration : 1h 38mn
Overall bit rate mode : Variable
Overall bit rate : 3 208 Kbps
Video
ID : 1
Format : AVC
Format/Info : Advanced Video Codec
Format profile : High@L4.1
Format settings, CABAC : Yes
Format settings, ReFrames : 4 frames
Codec ID : avc1
Codec ID/Info : Advanced Video Coding
Duration : 1h 38mn
Bit rate : 2 950 Kbps
Maximum bit rate : 7 754 Kbps
Width : 1 280 pixels
Height : 692 pixels
Display aspect ratio : 1.85:1
Frame rate mode : Constant
Frame rate : 23.976 fps
Color space : YUV
Chroma subsampling : 4:2:0
Bit depth : 8 bits
Scan type : Progressive
Bits/(Pixel*Frame) : 0.139
Stream size : 2.02 GiB (92%)
Writing library : x264 core 130 r2273 b3065e6
Audio
ID : 2
Format : AAC
Format/Info : Advanced Audio Codec
Format profile : LC
Codec ID : 40
Duration : 1h 37mn
Bit rate mode : Variable
Bit rate : 256 Kbps
Maximum bit rate : 281 Kbps
Channel(s) : 6 channels
Channel positions : Front: L C R, Side: L R, LFE
Sampling rate : 48.0 KHz
Compression mode : Lossy
Stream size : 179 MiB (8%)
Screens:
						
A Good Day To Die Hard 2013 720p WEB-DL 6CH AAC x264-SSDD (HQ)/A Good Day To Die Hard 2013 720p WEB-DL 6CH AAC x264-SSDD (HQ).mp4 2.362 GB
A Good Day To Die Hard 2013 720p WEB-DL 6CH AAC x264-SSDD (HQ)/SUBS/A Good Day To Die Hard 2013 720p WEB-DL 6CH AAC x264-SSDD (HQ).srt 78.367 KB
A Good Day To Die Hard 2013 720p WEB-DL 6CH AAC x264-SSDD (HQ)/www.RARBG.com.txt 45 B
Gathering some info...

Register and log in Isohunt and see no captcha anymore!

4000 symbols left
Hash 34887b03f619bde132352a7746d392b9265186ec

Related torrents for "A Good Day To Die Hard 2013 720p WEB-DL 6CH AAC x264-SSDD (HQ)"

Torrent search:

x264 hd web-dl 2013