johny Gaddar_2007 Verified

Size 332.308 MB   0 seeders     Added 2013-05-15 00:48:47

Stream torrent
Starting‥ You need BitLord! Get it from BitLord.com
10
To download or stream you need BitLord. Visit them at BitLord.com
[img]image[/img]




[hr]
[hr]
IMDB Link :- [url]http://www.imdb.com/title/tt1077248[/url]


[hr]

[hr]

[b][center] Movie Name:- Johnny Gaddaar (2007)

Certificate:- A

Genres:-Crime | Drama | Thriller

Release Date:-  28 September 2007 (India)


Ratings: 7.7/10 from 3,711 users

Director:- Sriram Raghavan

Writers:-Vinay Choudary , Sriram Raghavan

Stars:_Dharmendra, Rimi Sen, Ashwini Khalsekar.....  [/b][/center]

[hr]

[hr]

[b][center]Story Line:- Police officers recount a tale of missing money which results in lies, deceit, betrayal and death.
[/b][/center]


[hr]

[hr]



[b][/center]General:-[/b][/center]



[code]Complete name                            : Johnny Gaddar_Hindi_2007
Format                                   : Matroska
Format version                           : Version 2
File size                                : 312 MiB
Duration                                 : 2h 14mn
Overall bit rate                         : 324 Kbps
Writing application                      : Lavf53.6.0
Writing library                          : Lavf53.6.0[/code]



[b][/center]Video:-[/b][/center]


[code]ID                                       : 1
Format                                   : MPEG-4 Visual
Format profile                           : Simple@L3
Format settings, BVOP                    : No
Format settings, QPel                    : No
Format settings, GMC                     : No warppoints
Format settings, Matrix                  : Default (H.263)
Codec ID                                 : V_MPEG4/ISO/ASP
Codec ID/Info                            : Advanced Simple Profile
Duration                                 : 2h 14mn
Bit rate                                 : 309 Kbps
Width                                    : 480 pixels
Height                                   : 272 pixels
Display aspect ratio                     : 16:9
Frame rate mode                          : Constant
Frame rate                               : 25.000 fps
Color space                              : YUV
Chroma subsampling                       : 4:2:0
Bit depth                                : 8 bits
Scan type                                : Progressive
Compression mode                         : Lossy
Bits/(Pixel*Frame)                       : 0.095
Stream size                              : 298 MiB (96%)
Writing library                          : XviD 63
Default                                  : Yes
Forced                                   : No[/code]



[b][/center]Audio:-[/b][/cener]


[code]ID                                       : 2
Format                                   : MPEG Audio
Format version                           : Version 2
Format profile                           : Layer 3
Mode                                     : Joint stereo
Mode extension                           : MS Stereo
Codec ID                                 : A_MPEG/L3
Codec ID/Hint                            : MP3
Duration                                 : 2h 14mn
Bit rate mode                            : Constant
Bit rate                                 : 8 000 bps
Channel(s)                               : 2 channels
Sampling rate                            : 22.05 KHz
Compression mode                         : Lossy
Delay relative to video                  : 2ms
Stream size                              : 7.72 MiB (2%)
Default                                  : Yes
Forced                                   : No[/code]




[img]image[/img]




[img]image[/img]



[img]image[/img]



[img]image[/img]



[img]image[/img]



[img]image[/img]



[img]image[/img]




[img]image[/img]
johny Gaddar_2007/Johnny Gaddar_Hindi_2007.mkv 327.55 MB
johny Gaddar_2007/Sample.mkv 4.758 MB
Gathering some info...

Register and log in Isohunt and see no captcha anymore!

4000 symbols left
Hash 1679e5a89393b626c3cedddf9351ff7066c85354