imdb
rating

5.3
A Good Day to Die Hard

A Good Day to Die Hard (2013)

Action, Thriller

Full description

A Good Day To Die Hard 2013 HC SUBBED WEBRIP X264 AC3-BHRG

Size 1.547 GB   13 seeders     Added 2013-05-15 03:32:37

Stream torrent
Starting‥ You need BitLord! Get it from 1BitLord.com
To download or stream you need BitLord. Visit them at BitLord.com
              ***********************************************

                PublicHash - Largest Bittorrent Community
      
                          http://publichash.com/
    
              ***********************************************
Format                                   : MPEG-4
File size                                : 1.44 GiB
Duration                                 : 1h 38mn
Overall bit rate                         : 2 101 Kbps


Video
ID                                       : 1
Format                                   : AVC
Format/Info                              : Advanced Video Codec
Format profile                           : High@L4.2
Format settings, CABAC                   : Yes
Format settings, ReFrames                : 4 frames
Codec ID                                 : avc1
Codec ID/Info                            : Advanced Video Coding
Duration                                 : 1h 38mn
Bit rate                                 : 1 654 Kbps
Maximum bit rate                         : 8 653 Kbps
Width                                    : 720 pixels
Height                                   : 384 pixels
Display aspect ratio                     : 1.85:1
Frame rate mode                          : Constant
Frame rate                               : 23.976 fps
Color space                              : YUV
Chroma subsampling                       : 4:2:0
Bit depth                                : 8 bits
Scan type                                : Progressive
Bits/(Pixel*Frame)                       : 0.250
Stream size                              : 1.13 GiB (79%)

Audio
ID                                       : 2
Format                                   : AC-3
Format/Info                              : Audio Coding 3
Mode extension                           : CM (complete main)
Format settings, Endianness              : Big
Codec ID                                 : ac-3
Duration                                 : 1h 37mn
Bit rate mode                            : Constant
Bit rate                                 : 448 Kbps
Channel(s)                               : 6 channels
Channel positions                        : Front: L C R, Side: L R, LFE
Sampling rate                            : 48.0 KHz
Bit depth                                : 16 bits
Compression mode                         : Lossy
Stream size                              : 313 MiB (21%)
Title                                    : 2013.1080p.web-dl.x264 - [0] English_new.ac3#trackID=1:lang=en@GPAC0.5.1-DEV-rev4283
Language                                 : English

IMDBhttp://www.imdb.com/title/tt1606378/		
A Good Day To Die Hard 2013 HC SUBBED WEBRIP X264 AC3-BHRG/A Good Day To Die Hard 2013 HC SUBBED WEBRIP X264 AC3-BHRG.mp4 1.547 GB
A Good Day To Die Hard 2013 HC SUBBED WEBRIP X264 AC3-BHRG/Torrent downloaded from PublicHash.com.txt 151 B
Gathering some info...

Register and log in Isohunt and see no captcha anymore!

4000 symbols left
Hash 76e3d13dfdb9fd13e822e4a1b25c06f7b0c7a279

Related torrents for "A Good Day To Die Hard 2013 HC SUBBED WEBRIP X264 AC3-BHRG"

Torrent search:

x264 web-rip 2013