imdb
rating

6.0
Escape from Planet Earth

Escape from Planet Earth (2013)

Adventure, Animation, Comedy, Science Fiction, Family

Full description

Escape.From.Planet.Earth.2013.DVDRiP.720p - DubsTeam.avi

Size 944.039 MB   4 seeders     Added 2013-05-15 11:20:51

Stream torrent
Starting‥ You need BitLord! Get it from BitLord.com
To download or stream you need BitLord. Visit them at BitLord.com
							
Video
ID : 0
Format : AVC
Format/Info : Advanced Video Codec
Format profile : Main@L5.1
Format settings, CABAC : Yes
Format settings, ReFrames : 1 frame
Codec ID : H264
Duration : 1h 29mn
Bit rate : 1 207 Kbps
Width : 1 280 pixels
Height : 720 pixels
Display aspect ratio : 16:9
Frame rate : 30.000 fps
Color space : YUV
Chroma subsampling : 4:2:0
Bit depth : 8 bits
Scan type : Progressive
Bits/(Pixel*Frame) : 0.044
Stream size : 770 MiB (86%)
Audio
ID : 1
Format : MPEG Audio
Format version : Version 1
Format profile : Layer 3
Codec ID : 55
Codec ID/Hint : MP3
Duration : 1h 29mn
Bit rate mode : Constant
Bit rate : 192 Kbps
Channel(s) : 2 channels
Sampling rate : 44.1 KHz
Compression mode : Lossy
Stream size : 123 MiB (14%)
Alignment : Split accross interleaves
Interleave, duration : 34 ms (1.02 video frame)
Interleave, preload duration : 119 ms
Writing library : LAMELAME_MAJOR_VERSI
Escape.From.Planet.Earth.2013.DVDRiP.720p - DubsTeam.avi 944.039 MB
Gathering some info...

Register and log in Isohunt and see no captcha anymore!

4000 symbols left
Hash ef3af92867f541c4c840b552fca1d9d26aecbfc0

Related torrents for "Escape.From.Planet.Earth.2013.DVDRiP.720p - DubsTeam.avi"

Torrent search:

dvdrip hd 2013