imdb
rating

4.8
Teen Titans Go!

Teen Titans Go!

Comedy, Action & Adventure, Animation

Full description

Teen Titans Go s01e04 Dude Relax Laundry Day x264.mp4

Size 135.126 MB   3 seeders     Added 2013-05-15 13:58:37

Stream torrent
Starting‥ You need BitLord! Get it from BitLord.com
To download or stream you need BitLord. Visit them at BitLord.com
							Do you know how to relax and take a break from your regular 9 to 5? Well if you do good for you if not why not let the gang try to teach you? Today's episode Robin will learn to relax after his high-strung nature begins affecting the team. Later, chores pile up while the team bicker, and soon their dirty uniforms go on the offensive.
 Video
 ID : 201
 Format : AVC
 Format/Info : Advanced Video Codec
 Format profile : High@L3.0
 Format settings, CABAC : Yes
 Format settings, ReFrames : 4 frames
 Codec ID : avc1
 Codec ID/Info : Advanced Video Coding
 Duration : 21mn 40s
 Bit rate : 750 Kbps
 Maximum bit rate : 10.0 Mbps
 Width : 720 pixels
 Height : 384 pixels
 Display aspect ratio : 16:9
 Original display aspect ratio : 16:9
 Frame rate mode : Constant
 Frame rate : 25.000 fps
 Color space : YUV
 Chroma subsampling : 4:2:0
 Bit depth : 8 bits
 Scan type : Progressive
 Bits/(Pixel*Frame) : 0.109
 Stream size : 116 MiB
 Writing library : x264 core 120 r2151 a3f4407
 Audio
 ID : 101
 Format : AAC
 Format/Info : Advanced Audio Codec
 Format profile : LC
 Codec ID : 40
 Duration : 21mn 40s
 Source duration : 21mn 40s
 Bit rate mode : Variable
 Bit rate : 82.7 Kbps
 Maximum bit rate : 118 Kbps
 Channel(s) : 2 channels
 Channel positions : Front: L R
 Sampling rate : 24.0 KHz
 Compression mode : Lossy
 Delay relative to video : 58ms
 Stream size : 12.8 MiB (13%)
 Source stream size : 12.8 MiB (13%)
						
Teen Titans Go s01e04 Dude Relax Laundry Day x264.mp4 135.126 MB
Gathering some info...

Register and log in Isohunt and see no captcha anymore!

4000 symbols left
Hash b10ac4ec9669b17ff3376f3b09bb54f8f5240d1d

Related torrents for "Teen Titans Go s01e04 Dude Relax Laundry Day x264.mp4"

Torrent search:

season 01 x264 episode 04