Avril Lavigne - Here's To Never Growing Up [Music Video] 720p [Sbyky].mp4 Verified

Size 87.064 MB   12 seeders     Added 2013-05-15 17:50:49

Stream torrent
Starting‥ You need BitLord! Get it from BitLord.com
To download or stream you need BitLord. Visit them at BitLord.com
General
Complete name : Avril Lavigne - Here's To Never Growing Up [Music Video] 720p [Sbyky].mp4
Format : MPEG-4
Format profile : Base Media / Version 2
Codec ID : mp42
File size : 83.0 MiB
Duration : 3mn 44s
Overall bit rate mode : Variable
Overall bit rate : 3 105 Kbps
Encoded date : UTC 2013-05-06 19:41:22
Tagged date : UTC 2013-05-06 19:41:22
Video
ID : 1
Format : AVC
Format/Info : Advanced Video Codec
Format profile : [email protected]
/*  */

Format settings, CABAC : Yes
Format settings, ReFrames : 1 frame
Codec ID : avc1
Codec ID/Info : Advanced Video Coding
Duration : 3mn 44s
Bit rate : 2 911 Kbps
Maximum bit rate : 5 901 Kbps
Width : 1 280 pixels
Height : 720 pixels
Display aspect ratio : 16:9
Frame rate mode : Constant
Frame rate : 23.976 fps
Color space : YUV
Chroma subsampling : 4:2:0
Bit depth : 8 bits
Scan type : Progressive
Bits/(Pixel*Frame) : 0.132
Stream size : 77.8 MiB (94%)
Tagged date : UTC 2013-05-06 19:41:24
Audio
ID : 2
Format : AAC
Format/Info : Advanced Audio Codec
Format profile : LC
Codec ID : 40
Duration : 3mn 44s
Bit rate mode : Variable
Bit rate : 192 Kbps
Maximum bit rate : 203 Kbps
Channel(s) : 2 channels
Channel positions : Front: L R
Sampling rate : 44.1 KHz
Compression mode : Lossy
Stream size : 5.13 MiB (6%)
Title : IsoMedia File Produced by Google, 5-11-2011
Encoded date : UTC 2013-05-06 19:41:24
Tagged date : UTC 2013-05-06 19:41:24
Shared By Sbyky
Avril Lavigne - Here's To Never Growing Up [Music Video] 720p [Sbyky].mp4 87.064 MB
Gathering some info...

Register and log in Isohunt and see no captcha anymore!

4000 symbols left
Hash 92ddbd4536fc602dd1b25a320ab5ec2ebfa8c6a7

Related torrents for "Avril Lavigne - Here's To Never Growing Up [Music Video] 720p [Sbyky].mp4"