Lil Wayne Ft. 2 Chainz - Rich As Fuck [Explicit] 1080p [Sbyky].mp4

Size 50.575 MB   0 seeders     Added 2013-05-15 17:52:35

Stream torrent
Starting‥ You need BitLord! Get it from BitLord.com
To download or stream you need BitLord. Visit them at BitLord.com
General
Complete name : Lil Wayne Ft. 2 Chainz - Rich As Fuck [Explicit] 1080p [Sbyky].mp4
Format : MPEG-4
Format profile : Base Media / Version 2
Codec ID : mp42
File size : 48.2 MiB
Duration : 3mn 53s
Overall bit rate mode : Variable
Overall bit rate : 1 733 Kbps
Encoded date : UTC 2013-04-08 05:15:19
Tagged date : UTC 2013-04-08 05:15:19
Video
ID : 1
Format : AVC
Format/Info : Advanced Video Codec
Format profile : [email protected]
/*  */

Format settings, CABAC : Yes
Format settings, ReFrames : 1 frame
Codec ID : avc1
Codec ID/Info : Advanced Video Coding
Duration : 3mn 53s
Bit rate : 1 539 Kbps
Maximum bit rate : 3 651 Kbps
Width : 1 920 pixels
Height : 1 080 pixels
Display aspect ratio : 16:9
Frame rate mode : Constant
Frame rate : 23.976 fps
Color space : YUV
Chroma subsampling : 4:2:0
Bit depth : 8 bits
Scan type : Progressive
Bits/(Pixel*Frame) : 0.031
Stream size : 42.8 MiB (89%)
Tagged date : UTC 2013-04-08 05:15:27
Audio
ID : 2
Format : AAC
Format/Info : Advanced Audio Codec
Format profile : LC
Codec ID : 40
Duration : 3mn 53s
Bit rate mode : Variable
Bit rate : 192 Kbps
Maximum bit rate : 203 Kbps
Channel(s) : 2 channels
Channel positions : Front: L R
Sampling rate : 44.1 KHz
Compression mode : Lossy
Stream size : 5.34 MiB (11%)
Title : IsoMedia File Produced by Google, 5-11-2011
Encoded date : UTC 2013-04-08 05:15:25
Tagged date : UTC 2013-04-08 05:15:27
Shared By Sbyky
Lil Wayne Ft. 2 Chainz - Rich As Fuck [Explicit] 1080p [Sbyky].mp4 50.575 MB
Gathering some info...

Register and log in Isohunt and see no captcha anymore!

4000 symbols left
Hash 5d91c58953d8c9bc8fd2a1900353241b7370ec77