Lil Wayne Ft. 2 Chainz - Rich As Fuck [Explicit] 720p [Sbyky].mp4

Size 35.086 MB   0 seeders     Added 2013-05-15 17:52:35

Stream torrent
Starting‥ You need BitLord! Get it from BitLord.com
To download or stream you need BitLord. Visit them at BitLord.com
General
Complete name : Lil Wayne Ft. 2 Chainz - Rich As Fuck [Explicit] 720p [Sbyky].mp4
Format : MPEG-4
Format profile : Base Media / Version 2
Codec ID : mp42
File size : 33.5 MiB
Duration : 3mn 53s
Overall bit rate mode : Variable
Overall bit rate : 1 203 Kbps
Encoded date : UTC 2013-04-08 05:14:56
Tagged date : UTC 2013-04-08 05:14:56
Video
ID : 1
Format : AVC
Format/Info : Advanced Video Codec
Format profile : [email protected]
/*  */

Format settings, CABAC : Yes
Format settings, ReFrames : 1 frame
Codec ID : avc1
Codec ID/Info : Advanced Video Coding
Duration : 3mn 53s
Bit rate : 1 008 Kbps
Maximum bit rate : 2 315 Kbps
Width : 1 280 pixels
Height : 720 pixels
Display aspect ratio : 16:9
Frame rate mode : Constant
Frame rate : 23.976 fps
Color space : YUV
Chroma subsampling : 4:2:0
Bit depth : 8 bits
Scan type : Progressive
Bits/(Pixel*Frame) : 0.046
Stream size : 28.0 MiB (84%)
Tagged date : UTC 2013-04-08 05:15:00
Audio
ID : 2
Format : AAC
Format/Info : Advanced Audio Codec
Format profile : LC
Codec ID : 40
Duration : 3mn 53s
Bit rate mode : Variable
Bit rate : 192 Kbps
Maximum bit rate : 203 Kbps
Channel(s) : 2 channels
Channel positions : Front: L R
Sampling rate : 44.1 KHz
Compression mode : Lossy
Stream size : 5.34 MiB (16%)
Title : IsoMedia File Produced by Google, 5-11-2011
Encoded date : UTC 2013-04-08 05:14:58
Tagged date : UTC 2013-04-08 05:15:00
Shared By Sbyky
Lil Wayne Ft. 2 Chainz - Rich As Fuck [Explicit] 720p [Sbyky].mp4 35.086 MB
Gathering some info...

Register and log in Isohunt and see no captcha anymore!

4000 symbols left
Hash 070a362d8f99c2523e12ef8548ea084dd5ff990f