imdb
rating

5.3
A Good Day to Die Hard

A Good Day to Die Hard (2013)

Action, Thriller

Full description

A Good Day To Die Hard {2013} 720p Web Rip x264 Dual Audio [English - Hindi] =@King= [ExD Exclusive]

Size 832.415 MB   0 seeders     Added 2013-05-15 21:59:35

Stream torrent
Starting‥ You need BitLord! Get it from BitLord.com
10
To download or stream you need BitLord. Visit them at BitLord.com
							
Format : Matroska
Format version : Version 2
File size : 787 MiB
Duration : 1h 37mn
Overall bit rate : 1 124 Kbps
Video
ID : 1
Format : AVC
Format/Info : Advanced Video Codec
Format profile : High@L3.1
Format settings, CABAC : Yes
Format settings, ReFrames : 4 frames
Muxing mode : Header stripping
Codec ID : V_MPEG4/ISO/AVC
Duration : 1h 37mn
Bit rate : 922 Kbps
Width : 1 280 pixels
Height : 688 pixels
Display aspect ratio : 1.85:1
Frame rate mode : Constant
Frame rate : 23.976 fps
Audio #1
ID : 2
Format : AC-3
Format/Info : Audio Coding 3
Mode extension : CM (complete main)
Format settings, Endianness : Big
Muxing mode : Header stripping
Codec ID : A_AC3
Duration : 1h 37mn
Bit rate mode : Constant
Bit rate : 128 Kbps
Channel(s) : 2 channels
Channel positions : Front: L R
Sampling rate : 48.0 KHz
Bit depth : 16 bits
Compression mode : Lossy
Stream size : 89.6 MiB (11%)
Title : =@King=
Language : English
Audio #2
ID : 3
Format : MPEG Audio
Format version : Version 1
Format profile : Layer 3
Mode : Joint stereo
Mode extension : MS Stereo
Muxing mode : Header stripping
Codec ID : A_MPEG/L3
Codec ID/Hint : MP3
Duration : 1h 37mn
Bit rate mode : Constant
Bit rate : 80.0 Kbps
Channel(s) : 2 channels
Sampling rate : 44.1 KHz
Compression mode : Lossy
Delay relative to video : 8s 200ms
Stream size : 56.0 MiB (7%)
Title : =@King=
Language : Hindi
RESPECTS TO
*SaM* & =@King=[ExD]
Thanks Sonic For Hindi Cam Audio
						
A Good Day To Die Hard {2013} 720p Web Rip x264 Dual Audio [English - Hindi] =@King= [ExD Exclusive]/A Good Day To Die Hard {2013} 720p Web Rip x264 Dual Audio [English - Hindi] =@King= [ExD Exclusive].mkv 825.624 MB
A Good Day To Die Hard {2013} 720p Web Rip x264 Dual Audio [English - Hindi] =@King= [ExD Exclusive]/Sample.mkv 6.585 MB
A Good Day To Die Hard {2013} 720p Web Rip x264 Dual Audio [English - Hindi] =@King= [ExD Exclusive]/Cover.jpg 205.235 KB
Gathering some info...

Register and log in Isohunt and see no captcha anymore!

4000 symbols left
Hash 66dd86622fb255e0fa46026db1f93fdcbca5ceea

Related torrents for "A Good Day To Die Hard {2013} 720p Web Rip x264 Dual Audio [English - Hindi] =@King= [ExD Exclusive]"

Torrent search:

english x264 hd hindi web-rip 2013