History Channel - Atlantide La civilta perduta.avi

Size 367.17 MB   65 seeders     Added 2013-05-15 21:59:36

Stream torrent
Starting‥ You need BitLord! Get it from BitLord.com
To download or stream you need BitLord. Visit them at BitLord.com
							History Channel - Atlantide La civilta perduta [SATrip - DivX - Ita Mp3] Documentario MIRCrew [TNT Village]
*********************************************
History Channel - Atlantide La civilta perduta
Un gruppo di esperti ritiene di essere prossimo a svelare il mistero millenario della perduta città di Atlantide e lancia una spedizione verso il mare ad ovest di Gibilterra per testare la 
loro teoria.
Il gruppo è condotto dallРІР‚в„ўeminente storico Professor Jacques Collina-Girard e supportato dai due uomini che hanno condotto la spedizione per lРІР‚в„ўindividuazione del Titanic.
Ritengono di aver potuto individuare, mediante una combinazione di indicatori letterari e prove geologiche, la locazione della città perduta, poco ad ovest dello
Stretto di Gibilterra, su una secca sabbiosa sommersa, ora nota come Spartel Island.
Atlantide secondo Platone
Platone nei suoi scritti racconta una leggenda secondo la quale oltre le Colonne d’Ercole era anticamente presente un’isola chiamata Atlantide. I dialoghi di Platone (Timeo e Crizia) in cui 
si parla per la prima volta di Atlantide, sono stati scritti dal Filosofo greco intorno al 400 a.c. e descrive Atlantide come una grande civiltà scomparsa 9000 anni prima, (quindi circa 
11500 anni fa) infondo all’oceano Atlantico, con solo le cime delle montagne più alte rimaste in superficie.
Nel Timeo Platone fa riferimento per la prima volta ad Atlantide, Il sacerdote di Sais racconta a Solone come una grande potenza si oppose ad Atene in tempi remoti
General
Complete name : History Channel - Atlantide La civilta perduta.avi
Format : AVI
Format/Info : Audio Video Interleave
File size : 350 MiB
Duration : 46mn 6s
Overall bit rate : 1 062 Kbps
Writing application : VirtualDubMod 1.5.10.1 (build 2366/release)
Writing library : VirtualDubMod build 2366/release
Video
ID : 0
Format : MPEG-4 Visual
Format settings, BVOP : No
Format settings, QPel : No
Format settings, GMC : No warppoints
Format settings, Matrix : Default (H.263)
Codec ID : DX50
Codec ID/Hint : DivX 5
Duration : 46mn 6s
Bit rate : 924 Kbps
Width : 640 pixels
Height : 480 pixels
Display aspect ratio : 4:3
Frame rate : 25.000 fps
Color space : YUV
Chroma subsampling : 4:2:0
Bit depth : 8 bits
Scan type : Progressive
Bits/(Pixel*Frame) : 0.120
Stream size : 305 MiB (87%)
Writing library : DivX 5.2.1 Beta (UTC 2004-09-08)
Audio
ID : 1
Format : MPEG Audio
Format version : Version 1
Format profile : Layer 3
Mode : Joint stereo
Mode extension : MS Stereo
Codec ID : 55
Codec ID/Hint : MP3
Duration : 46mn 6s
Bit rate mode : Constant
Bit rate : 128 Kbps
Channel(s) : 2 channels
Sampling rate : 48.0 KHz
Stream size : 42.2 MiB (12%)
Alignment : Aligned on interleaves
Interleave, duration : 40 ms (1.00 video frame)
Interleave, preload duration : 504 ms
						
History Channel - Atlantide La civilta perduta.avi 367.17 MB
Gathering some info...

Register and log in Isohunt and see no captcha anymore!

4000 symbols left
Hash 831c1f5079f1a7e8b5c77547f1ec8022ecdb883c