imdb
rating

 
Wanted

Wanted (2005)

Drama

Full description

Wanted - Scegli Il Tuo Destino (2008) + Bonus

Size 2.005 GB   4 seeders     Added 2013-05-15 22:23:50

Stream torrent
Starting‥ You need BitLord! Get it from BitLord.com
To download or stream you need BitLord. Visit them at BitLord.com
							Wanted - Scegli Il Tuo Destino (2008) + Bonus 16 m [XviD - Italian English Ac3 5.1 - Sub Ita Eng] MIRCrew [TNT Village]
INCLUSO 16 MINUTI DI CONTRIBUTI SPECIALI - INTERVISTE E DIETRO LE QUINTE - ENG SUB ITA ENG 
Titolo originale 	Wanted
Paese di produzione 	USA
Anno 	2008
Durata 	110 min
Genere 	Azione, Thriller
Regia 	Timur Bekmambetov
Soggetto 	Mark Millar (fumetto)
Sceneggiatura 	Michael Brandt, Derek Haas, Chris Morgan
Produttore 	Marc Platt, Jim Lemley, Jason Netter, Iain Smith
Co-produttori: Mark Millar, J.G. Jones, Chris Carlisle
Produttore esecutivo 	Adam Siegel, Marc Silvestri, Roger Birnbaum, Gary Barber
Casa di produzione 	Marc Platt Productions, Kickstart Productions, Top Cow Productions
Distribuzione (Italia) 	Universal Pictures
Fotografia 	Mitchell Amundsen
Montaggio 	David Brenner
Musiche 	Danny Elfman
Scenografia 	John Myhre
Costumi 	Varya Avdyushko
 James McAvoy: Wesley Gibson
 Morgan Freeman: Sloan
 Angelina Jolie: Fox
 Terence Stamp: Pekwarsky
 Thomas Kretschmann: Cross
 Common: l'armaiolo
 Kristen Hager: Cathy
 Marc Warren: il riparatore
 David O'Hara: Mr. X
 Konstantin Jur'evic Chabenskij: il disinfestatore
 Dato Bakhtadze: il macellaio
 Chris Pratt: Barry
 Lorna Scott: Janice
Doppiatori italiani
 Stefano Crescentini: Wesley Gibson
 Vittorio Di Prima: Sloan
 Claudia Catani: Fox
 Dario Penne: Pekwarsky
 Francesco Prando: Cross
 Gianluca Tusco: l'armaiolo
 Ilaria Stagni: Cathy
 Christian Iansante: il riparatore
 Stefano De Sando: Mr. X
 Simone Mori: il disinfestatore
 Roberto Pedicini: il macellaio
 Nanni Baldini: Barry
 Claudia Balboni: Janice 
Wesley Gibson è un patetico giovane pusillanime, che svolge un monotono lavoro impiegatizio, e vive con la sua ragazza che lo tradisce con il suo migliore amico nonché collega di lavoro; 
sul posto di lavoro viene continuamente insultato e avvilito dal suo capo.
La sua vita viene però stravolta dall'arrivo di Fox, apparentemente una criminale, che gli promette vendetta per la perdita di suo padre. In breve tempo, Wesley finisce a contatto con una 
società segreta di supercriminali: "la Confraternita", di cui suo padre, soprannominato "Il Killer", era il miglior esponente, ucciso da un fuoriuscito ribelle della setta di nome Cross. 
Dopo un duro addestramento volto a far emergere i poteri tramandatigli dal padre, tra cui quello di far curvare i proiettili e di muoversi più velocemente delle altre persone.......
A young man finds out his long lost father is an assassin. When his father is murdered, the son is recruited into his father's old organization and trained by a man named Sloan to follow in 
his dad's footsteps....
[spoiler]
General
Complete name : Wanted - Scegli Il Tuo Destino (2008) + Bonus\Wanted - Scegli Il Tuo Destino (2008).avi
Format : AVI
Format/Info : Audio Video Interleave
File size : 1.66 GiB
Duration : 1h 45mn
Overall bit rate : 2 259 Kbps
Writing application : VirtualDubMod 1.5.4.1 (build 2178/release)
Writing library : VirtualDubMod build 2178/release
Video
ID : 0
Format : MPEG-4 Visual
Format profile : Advanced Simple@L5
Format settings, BVOP : Yes
Format settings, QPel : No
Format settings, GMC : No warppoints
Format settings, Matrix : Custom
Codec ID : XVID
Codec ID/Hint : XviD
Duration : 1h 45mn
Bit rate : 1 482 Kbps
Width : 720 pixels
Height : 304 pixels
Display aspect ratio : 2.35:1
Frame rate : 25.000 fps
Color space : YUV
Chroma subsampling : 4:2:0
Bit depth : 8 bits
Scan type : Progressive
Bits/(Pixel*Frame) : 0.271
Stream size : 1.09 GiB (66%)
Writing library : XviD 1.2.1 (UTC 2008-12-04)
Audio #1
ID : 1
Format : AC-3
Format/Info : Audio Coding 3
Mode extension : CM (complete main)
Codec ID : 2000
Duration : 1h 45mn
Bit rate mode : Constant
Bit rate : 384 Kbps
Channel(s) : 6 channels
Channel positions : Front: L C R, Side: L R, LFE
Sampling rate : 48.0 KHz
Bit depth : 16 bits
Stream size : 289 MiB (17%)
Alignment : Aligned on interleaves
Interleave, duration : 96 ms (2.40 video frames)
Interleave, preload duration : 96 ms
Language : Italian
Audio #2
ID : 2
Format : AC-3
Format/Info : Audio Coding 3
Mode extension : CM (complete main)
Codec ID : 2000
Duration : 1h 45mn
Bit rate mode : Constant
Bit rate : 384 Kbps
Channel(s) : 6 channels
Channel positions : Front: L C R, Side: L R, LFE
Sampling rate : 48.0 KHz
Bit depth : 16 bits
Stream size : 289 MiB (17%)
Alignment : Aligned on interleaves
Interleave, duration : 96 ms (2.40 video frames)
Interleave, preload duration : 96 ms
Language : Englishdati bonus un solo file:
General
Complete name : Wanted - Scegli Il Tuo Destino (2008) + Bonus\BONUS 1.avi
Format : AVI
Format/Info : Audio Video Interleave
File size : 99.8 MiB
Duration : 7mn 35s
Overall bit rate : 1 837 Kbps
Writing application : VirtualDubMod 1.5.4.1 (build 2178/release)
Writing library : VirtualDubMod build 2178/release
Video
ID : 0
Format : MPEG-4 Visual
Format profile : Advanced Simple@L5
Format settings, BVOP : Yes
Format settings, QPel : No
Format settings, GMC : No warppoints
Format settings, Matrix : Custom
Codec ID : XVID
Codec ID/Hint : XviD
Duration : 7mn 35s
Bit rate : 1 638 Kbps
Width : 720 pixels
Height : 400 pixels
Display aspect ratio : 16:9
Frame rate : 25.000 fps
Color space : YUV
Chroma subsampling : 4:2:0
Bit depth : 8 bits
Scan type : Progressive
Bits/(Pixel*Frame) : 0.228
Stream size : 89.0 MiB (89%)
Writing library : XviD 1.2.1 (UTC 2008-12-04)
Audio
ID : 1
Format : AC-3
Format/Info : Audio Coding 3
Mode extension : CM (complete main)
Codec ID : 2000
Duration : 7mn 35s
Bit rate mode : Constant
Bit rate : 192 Kbps
Channel(s) : 2 channels
Channel positions : Front: L R
Sampling rate : 48.0 KHz
Bit depth : 16 bits
Stream size : 10.4 MiB (10%)
Alignment : Aligned on interleaves
Interleave, duration : 96 ms (2.40 video frames)
Interleave, preload duration : 96 ms
Language : English
[/spoiler]
						
Wanted - Scegli Il Tuo Destino (2008) + Bonus/BONUS 1.avi 104.647 MB
Wanted - Scegli Il Tuo Destino (2008) + Bonus/BONUS 1.idx 11.342 KB
Wanted - Scegli Il Tuo Destino (2008) + Bonus/BONUS 1.sub 958.464 KB
Gathering some info...

Register and log in Isohunt and see no captcha anymore!

4000 symbols left
Hash feebc70dddb4f0f3cdd4bd634791436a4ade12cd

Related torrents for "Wanted - Scegli Il Tuo Destino (2008) + Bonus"

Torrent search:

2008