Emmylou Harris & The Nash Ramblers (1995)-alE13

Size 2.958 GB   0 seeders     Added 2013-05-15 22:42:49

Stream torrent
Starting‥ You need BitLord! Get it from BitLord.com
To download or stream you need BitLord. Visit them at BitLord.com
							
Produkcja: USA
Remastering VHS to DVD : 2006
Premiera: 03.10.2006
Reżyseria: Bill Davies
Senariusz: Cordie Tapp,Archie Campbell
Muzyka: Don Rich & The Buckaroos
Zdjęcia: Fred Gayton
Gatunek: Dokument,Muzyka
Opis Filmu:
This is a professionally shot and edited video of Emmylou Harris
and the Nash Ramblers at the Ryman Auditorium.
The show was on the 11th of February 1995
3 years AFTER the show that gave us the official "At The Ryman"
CD from Emmylou and the Ramblers.
Jest to profesjonalnie zrobiony materiał wideo z koncertu Emmylou Harris i Nash Ramblers,
w Ryman Auditorium (Nashville). Koncert się odbył 11 lutego 1995.
Wspaniała Artystka,Gwiazda Muzyki Country, takiej Kobiecie trzeba się Ukłonić.
Obsada:
Emmylou Harris - Vocals And Guitar
Sam Bush - Mandolin, Fiddles And Vocals
Jon Randall Stewart - Guitars And Vocals
Al Perkins - Dobro, Banjo, Guitar And Harmony Vocals
Larry Atamanuik - Drums, Percussions And Harmony Vocals
Mark Winchester - Upright Bass
Special guests:
Roy Huskey, Jr - Upright Bass And Harmony Vocals
Bill Monroe - Mandolin And Vocals
Joey Miskulin - Accordion
Kieran Kane - Mandolin
Tracklist:
01 Intro
02 Roses In The Snow
03 If I Could Only Win Your Love
04 Hello Stranger
05 Beneath Still Waters
06 One Of These Days
07 The Boxer
08 Amarillo
09 Nash Ramble
10 Band Intros
11 You Don't Know Me
12 Prayer In Open D
13 High Powered Love
14 Making Believe
15 The Other Side Of Life
16 Blue Kentucky Girl
17 Scotland
18 Nash Instrumental
19 Guitar Town
20 Half As Much
21 Two More Bottles Of Wine
22 Too Far Gone
23 Mansion Intro
24 Mansion On The Hill
25 Walls Of Time
26 Get Up John
27 Sailing Shoes
28 Pancho and Lefty
29 If I Needed You
30 Just Like You
31 What You Don't Know
32 Bill Monroe-Blue Moon Intro
33 Blue Moon Of Kentucky
34 Kentucky Waltz
35 Born To Run
36 Ain't Livin' Long Like This
37 Sweet Dreams
38 Rambler Crew Thanks
39 Save The Last Dance For Me
40 Crescent City
41 C'est La Vie (You Never Can Tell)
42 Encore
43 Calling My Children Home
44 Luxury Liner
45 Jambalaya
46 End credits
Total Running Time: 3h, 20 s
Dane Techniczne:
Emmylou Harris & The Nash Ramblers (1995)-alE13.mkv
Format : Matroska
Format version : Version 4 / Version 2
File size : 2.72 GiB
Duration : 3h 0mn
Overall bit rate : 2 162 Kbps
Movie name : Emmylou Harris & The Nash Ramblers (1995)-alE13_AT-TEAM
Encoded date : UTC 2013-05-15 14:55:37
Writing application : mkvmerge v6.1.0 
Writing library : libebml v1.3.0 + libmatroska v1.4.0
Video
ID : 1
Format : AVC
Format/Info : Advanced Video Codec
Format profile : Main@L3.0
Format settings, CABAC : Yes
Format settings, ReFrames : 2 frames
Codec ID : V_MPEG4/ISO/AVC
Duration : 3h 0mn
Bit rate : 1 933 Kbps
Width : 720 pixels
Height : 480 pixels
Display aspect ratio : 3:2
Frame rate mode : Constant
Frame rate : 29.970 fps
Standard : NTSC
Color space : YUV
Chroma subsampling : 4:2:0
Bit depth : 8 bits
Scan type : Progressive
Bits/(Pixel*Frame) : 0.187
Stream size : 2.39 GiB (88%)
Title : Emmylou Harris & The Nash Ramblers (1995)-alE13
Writing library : x264 core 112 r1834 a51816a
Audio
ID : 2
Format : AC-3
Format/Info : Audio Coding 3
Mode extension : CM (complete main)
Format settings, Endianness : Big
Codec ID : A_AC3
Duration : 3h 0mn
Bit rate mode : Constant
Bit rate : 224 Kbps
Channel(s) : 2 channels
Channel positions : Front: L R
Sampling rate : 48.0 KHz
Bit depth : 16 bits
Compression mode : Lossy
Stream size : 289 MiB (10%)
Title : Emmylou Harris & The Nash Ramblers (1995)-alE13_AC3.-2ch.
Language : English
						
Emmylou Harris & The Nash Ramblers (1995)-alE13/Emmylou Harris & The Nash Ramblers (1995)-alE13.mkv 2.925 GB
Emmylou Harris & The Nash Ramblers (1995)-alE13/Sample.mkv 32.696 MB
Emmylou Harris & The Nash Ramblers (1995)-alE13/Nostalgie11.jpg 189.023 KB
Gathering some info...

Register and log in Isohunt and see no captcha anymore!

4000 symbols left
Hash 4ca2ea2581d7fceeeee43347333522f1b62566ac

Related torrents for "Emmylou Harris & The Nash Ramblers (1995)-alE13"

Torrent search:

1995