imdb
rating

5.3
A Good Day to Die Hard

A Good Day to Die Hard (2013)

Action, Thriller

Full description

A Good Day to Die Hard 2013 WEBRip 480p x264 - VYTO [P2PDL]

Size 380.297 MB   14 seeders     Added 2013-05-15 23:39:34

Stream torrent
Starting‥ You need BitLord! Get it from 1BitLord.com
To download or stream you need BitLord. Visit them at BitLord.com
							A Good Day to Die Hard 2013 WEBRip 480p x264 - VYTOGenre: Action | Crime | Thriller
Plot: John McClane travels to Russia to help out his seemingly wayward son, Jack, only to discover
that Jack is a CIA operative working to prevent a nuclear-weapons heist, causing the father and son
to team up against underworld forces. 
Director: John Moore
Stars: Bruce Willis, Jai Courtney, Sebastian Koch.
Rated: R for violence and language.Info:http://www.imdb.com/title/tt1606378/Trailer:https://www.youtube.com/watch?v=bC7W7wE_XLYFormat : MPEG-4
File size : 350 MiB
Duration : 1h 38mn
Overall bit rate : 499 Kbps
Source : 720p.WEB-DL.H264-HDWinG
Video
Format : AVC
Bit rate : 457 Kbps
Width : 720 pixels
Height : 384 pixels
Display aspect ratio : 1.85:1
Frame rate mode : Constant
Frame rate : 23.976 fps
Stream size : 320 MiB (91%)
Writing library : x264 core 130 r2273
Audio
Format : AAC
Bit rate mode : Variable
Bit rate : 40.0 Kbps
Channel(s) : 2 channels
Channel positions : Front: L R
Sampling rate : 44.1 KHz
Stream size : 28.0 MiB (8%)
Language : English
Subtitle : Yes(English)Screenshots:
----------------------------------------------------------------------------------------------------Encoded using revolutionary 10bit encoding, which enables us to provide you more crispier 
and sharper images at small sizes, just make sure you follow our instructions without a fault.
Recommend to you to use latest version of VLC player. Install K-Lite Codec Pack or shark007 codecs
in case of any kind of problem in playback (For non-VLC Media Player users). Alternatively, install
Core AVC codecs, the fastest decoder that there is coupled with Community Center Codec Pack and play
on Windows Media Player Classic. Check sample to be sure.
Enjoy!
Encoder Notes: Looking For Early Access To Anything You Can Provide DVDScr, R5, DVDR, BluRay, Direct
Audio, Music Releases and Seedboxes. We require dedicated servers, so as to do more and fast releases of movies.
If You Got anything to offer contact us at "contact@p2pdl.com".
						
A Good Day to Die Hard 2013 WEBRip 480p x264 - VYTO [P2PDL]/A Good Day to Die Hard 2013 WEBRip 480p x264 - VYTO/A Good Day to Die Hard 2013 WEBRip 480p x264 - VYTO.mp4 367.438 MB
A Good Day to Die Hard 2013 WEBRip 480p x264 - VYTO [P2PDL]/Sample.mp4 12.786 MB
A Good Day to Die Hard 2013 WEBRip 480p x264 - VYTO [P2PDL]/A Good Day to Die Hard 2013 WEBRip 480p x264 - VYTO/A Good Day to Die Hard 2013 WEBRip 480p x264 - VYTO.srt 68.508 KB
Gathering some info...

Register and log in Isohunt and see no captcha anymore!

4000 symbols left
Hash a2d28ae1205514a845217517a17187d167209a83

Related torrents for "A Good Day to Die Hard 2013 WEBRip 480p x264 - VYTO [P2PDL]"

Torrent search:

x264 web-rip 2013