imdb
rating

5.8
Hunters

Hunters (2016)

Sci-Fi & Fantasy

Full description

Hansel and Gretel Witch Hunters 2013 720p BRRip x264 Unrated MP4 AAC-CC

Size 2.599 GB   0 seeders     Added 2013-05-16 01:59:35

Stream torrent
Starting‥ You need BitLord! Get it from BitLord.com
To download or stream you need BitLord. Visit them at BitLord.com
							http://www.imdb.com/title/tt1428538/
Source: Hansel.And.Gretel.Witch.Hunters.2013.UNRATED.720p.BluRay.x264-ANGELiC Thanks!
Subs: Arabic, Danish, Dutch, English, Farsi-Persian, Hungarian, Indonesian, Korean, Malay, Polish, Turkish, Vietnamese.
Sample and Screens included.
General
Complete name : Hansel and Gretel Witch Hunters 2013 720p BRRip x264 Unrated MP4 AAC-CC.mp4
Format : MPEG-4
Format profile : Base Media
Codec ID : isom
File size : 2.39 GiB
Duration : 1h 37mn
Overall bit rate mode : Variable
Overall bit rate : 3 496 Kbps
Encoded date : UTC 2013-05-14 15:45:12
Tagged date : UTC 2013-05-14 15:45:12
Writing application : Yamb 2.1.0.0
Video
ID : 1
Format : AVC
Format/Info : Advanced Video Codec
Format profile : High@L4.1
Format settings, CABAC : Yes
Format settings, ReFrames : 5 frames
Codec ID : avc1
Codec ID/Info : Advanced Video Coding
Duration : 1h 37mn
Bit rate : 3 123 Kbps
Maximum bit rate : 14.5 Mbps
Width : 1 280 pixels
Height : 528 pixels
Display aspect ratio : 2.40:1
Frame rate mode : Variable
Frame rate : 23.976 fps
Minimum frame rate : 19.048 fps
Maximum frame rate : 24.390 fps
Color space : YUV
Chroma subsampling : 4:2:0
Bit depth : 8 bits
Scan type : Progressive
Bits/(Pixel*Frame) : 0.193
Stream size : 2.13 GiB (89%)
Writing library : x264 core 112
Encoding settings : cabac=1 / ref=5 / deblock=1:0:0 / analyse=0x3:0x113 / me=hex / subme=7 / psy=1 / psy_rd=1.00:0.00 / mixed_ref=1 / me_range=16 / chroma_me=1 / trellis=1 / 8x8dct=1 / cqm=0 / deadzone=21,11 / fast_pskip=1 / chroma_qp_offset=-2 / threads=3 / sliced_threads=0 / nr=0 / decimate=1 / interlaced=0 / constrained_intra=0 / bframes=5 / b_pyramid=2 / b_adapt=2 / b_bias=0 / direct=1 / weightb=1 / open_gop=0 / weightp=2 / keyint=240 / keyint_min=24 / scenecut=40 / intra_refresh=0 / rc_lookahead=50 / rc=abr / mbtree=1 / bitrate=3123 / ratetol=1.0 / qcomp=0.60 / qpmin=3 / qpmax=51 / qpstep=4 / ip_ratio=1.40 / aq=1:1.00
Encoded date : UTC 2013-05-14 21:12:00
Tagged date : UTC 2013-05-14 15:48:25
Color primaries : BT.709
Transfer characteristics : BT.709
Matrix coefficients : BT.709
Audio
ID : 2
Format : AAC
Format/Info : Advanced Audio Codec
Format profile : LC
Codec ID : 40
Duration : 1h 37mn
Bit rate mode : Variable
Bit rate : 384 Kbps
Maximum bit rate : 576 Kbps
Channel(s) : 6 channels
Channel positions : Front: L C R, Side: L R, LFE
Sampling rate : 48.0 KHz
Compression mode : Lossy
Delay relative to video : 83ms
Stream size : 268 MiB (11%)
Language : English
Encoded date : UTC 2013-05-14 15:47:46
Tagged date : UTC 2013-05-14 15:48:25
Enjoy...
Coming soon: The Duellist, The Secret in Their Eyes and more.
Hansel and Gretel Witch Hunters 2013 720p BRRip x264 Unrated MP4 AAC-CC/Sample/Sample.mp4 24.529 MB
Hansel and Gretel Witch Hunters 2013 720p BRRip x264 Unrated MP4 AAC-CC/Screens-Info/Hansel and Gretel Witch Hunters 2013 720p BRRip x264 MP4 AAC-CC.mp4_snapshot_00.54.57.png 1.258 MB
Hansel and Gretel Witch Hunters 2013 720p BRRip x264 Unrated MP4 AAC-CC/Screens-Info/Hansel and Gretel Witch Hunters 2013 720p BRRip x264 MP4 AAC-CC.mp4_snapshot_01.23.09.png 1.218 MB
Gathering some info...

Register and log in Isohunt and see no captcha anymore!

4000 symbols left
Hash 6bb8bfd8bed6da451c8dcaf6fa68da75f8e0786f

Related torrents for "Hansel and Gretel Witch Hunters 2013 720p BRRip x264 Unrated MP4 AAC-CC"

Torrent search:

x264 hd bd 2013