imdb
rating

5.3
A Good Day to Die Hard

A Good Day to Die Hard (2013)

Action, Thriller

Full description

A Good Day To Die Hard 2013 HD1080p 6CH AC3 $MURDER$

Size 1.87 GB   0 seeders     Added 2013-05-16 05:20:25

Stream torrent
Starting‥ You need BitLord! Get it from BitLord.com
To download or stream you need BitLord. Visit them at BitLord.com
							Complete name : A Good Day To Die Hard 2013 HD 1080p 6CH AC3 $MURDER$.mkv
Format : Matroska
Format version : Version 1
File size : 1.71 GiB
Duration : 1h 38mn
Overall bit rate : 2 500 Kbps
Encoded date : UTC 2013-05-15 02:24:02
Writing application : Ecstasy

Video
ID : 1
Format : AVC
Format/Info : Advanced Video Codec
Format profile : High@L3.0
Format settings, CABAC : No
Format settings, ReFrames : 1 frame
Codec ID : V_MPEG4/ISO/AVC
Duration : 1h 38mn
Bit rate : 2 400 Kbps
Width : 1 920 pixels
Height : 800 pixels
Display aspect ratio : 2.35:1
Frame rate mode : Constant
Frame rate : 29.970 fps
Color space : YUV
Chroma subsampling : 4:2:0
Bit depth : 8 bits
Scan type : Progressive
Bits/(Pixel*Frame) : 0.052
Stream size : 1.59 GiB (93%)
Writing library : x264 core 
Default : Yes
Forced : No

Audio
ID : 2
Format : AC-3
Format/Info : Audio Coding 3
Mode extension : CM (complete main)
Format settings, Endianness : Big
Codec ID : A_AC3
Duration : 1h 38mn
Bit rate mode : Constant
Bit rate : 128 Kbps
Channel(s) : 6 channels
Channel positions : Front: L C R, Side: L R, LFE
Sampling rate : 44.1 KHz
Bit depth : 16 bits
Compression mode : Lossy
Delay relative to video : -33ms
Stream size : 89.9 MiB (5%)
Default : Yes
Forced : No
A Good Day To Die Hard 2013 HD1080p 6CH AC3 $MURDER$/A Good Day To Die Hard 2013 HD1080p 6CH AC3 $MURDER$.mkv 1.841 GB
A Good Day To Die Hard 2013 HD1080p 6CH AC3 $MURDER$/SAMPLE.ts 28.892 MB
A Good Day To Die Hard 2013 HD1080p 6CH AC3 $MURDER$/A-Good-Day-To-Die-Hard-HD 1080P.jpg 220.2 KB
Gathering some info...

Register and log in Isohunt and see no captcha anymore!

4000 symbols left
Hash 0de58b8013145d4d956be4a4841695e0e13519ad

Related torrents for "A Good Day To Die Hard 2013 HD1080p 6CH AC3 $MURDER$"

Torrent search:

2013