imdb
rating

7.1
The World

The World (2004)

Drama, Foreign

Full description
quality   bd hd dvdr

Justin Bieber Ft. Ludacris - All Around The World [Music Video] 720p [Sbyky].mp4

Size 100.473 MB   22 seeders     Added 2013-05-16 07:20:50

Stream torrent
Starting‥ You need BitLord! Get it from 1BitLord.com
To download or stream you need BitLord. Visit them at BitLord.com
							
General
Complete name : Justin Bieber Ft. Ludacris - All Around The World [Music Video] 720p [Sbyky].mp4
Format : MPEG-4
Format profile : Base Media / Version 2
Codec ID : mp42
File size : 95.8 MiB
Duration : 4mn 15s
Overall bit rate mode : Variable
Overall bit rate : 3 152 Kbps
Encoded date : UTC 2013-05-01 15:24:26
Tagged date : UTC 2013-05-01 15:24:26
Video
ID : 1
Format : AVC
Format/Info : Advanced Video Codec
Format profile : High@L3.1
Format settings, CABAC : Yes
Format settings, ReFrames : 1 frame
Codec ID : avc1
Codec ID/Info : Advanced Video Coding
Duration : 4mn 15s
Bit rate : 2 958 Kbps
Maximum bit rate : 7 066 Kbps
Width : 1 280 pixels
Height : 720 pixels
Display aspect ratio : 16:9
Frame rate mode : Constant
Frame rate : 23.976 fps
Color space : YUV
Chroma subsampling : 4:2:0
Bit depth : 8 bits
Scan type : Progressive
Bits/(Pixel*Frame) : 0.134
Stream size : 89.9 MiB (94%)
Tagged date : UTC 2013-05-01 15:24:33
Audio
ID : 2
Format : AAC
Format/Info : Advanced Audio Codec
Format profile : LC
Codec ID : 40
Duration : 4mn 15s
Bit rate mode : Variable
Bit rate : 192 Kbps
Maximum bit rate : 201 Kbps
Channel(s) : 2 channels
Channel positions : Front: L R
Sampling rate : 44.1 KHz
Compression mode : Lossy
Stream size : 5.84 MiB (6%)
Title : IsoMedia File Produced by Google, 5-11-2011
Encoded date : UTC 2013-05-01 15:24:31
Tagged date : UTC 2013-05-01 15:24:33
Shared By Sbyky
Justin Bieber Ft. Ludacris - All Around The World [Music Video] 720p [Sbyky].mp4 100.473 MB
Gathering some info...

Register and log in Isohunt and see no captcha anymore!

4000 symbols left
Hash 7adcff15753368f42de63895e44aa267a05d33c9

Related torrents for "Justin Bieber Ft. Ludacris - All Around The World [Music Video] 720p [Sbyky].mp4"

Torrent search:

hd