imdb
rating

7.0
Bobby

Bobby (2016)

Documentary

Full description
quality   dvdrip x264 hd bd h264 dvdr

Ray J Ft. Bobby Brackins - I Hit It First [Music Video] 720p [Sbyky].mp4

Size 46.616 MB   0 seeders     Added 2013-05-16 13:40:35

Stream torrent
Starting‥ You need BitLord! Get it from 1BitLord.com
To download or stream you need BitLord. Visit them at BitLord.com
							
General
Complete name : Ray J Ft. Bobby Brackins - I Hit It First [Music Video] 720p [Sbyky].mp4
Format : MPEG-4
Format profile : Base Media / Version 2
Codec ID : mp42
File size : 44.5 MiB
Duration : 3mn 38s
Overall bit rate mode : Variable
Overall bit rate : 1 705 Kbps
Encoded date : UTC 2013-05-01 02:45:07
Tagged date : UTC 2013-05-01 02:45:07
Video
ID : 1
Format : AVC
Format/Info : Advanced Video Codec
Format profile : High@L3.1
Format settings, CABAC : Yes
Format settings, ReFrames : 1 frame
Codec ID : avc1
Codec ID/Info : Advanced Video Coding
Duration : 3mn 38s
Bit rate : 1 511 Kbps
Maximum bit rate : 3 883 Kbps
Width : 1 280 pixels
Height : 720 pixels
Display aspect ratio : 16:9
Frame rate mode : Constant
Frame rate : 23.976 fps
Color space : YUV
Chroma subsampling : 4:2:0
Bit depth : 8 bits
Scan type : Progressive
Bits/(Pixel*Frame) : 0.068
Stream size : 39.4 MiB (89%)
Tagged date : UTC 2013-05-01 02:45:26
Audio
ID : 2
Format : AAC
Format/Info : Advanced Audio Codec
Format profile : LC
Codec ID : 40
Duration : 3mn 38s
Bit rate mode : Variable
Bit rate : 192 Kbps
Maximum bit rate : 202 Kbps
Channel(s) : 2 channels
Channel positions : Front: L R
Sampling rate : 44.1 KHz
Compression mode : Lossy
Stream size : 5.01 MiB (11%)
Title : IsoMedia File Produced by Google, 5-11-2011
Encoded date : UTC 2013-05-01 02:45:19
Tagged date : UTC 2013-05-01 02:45:26
Shared By Sbyky
Ray J Ft. Bobby Brackins - I Hit It First [Music Video] 720p [Sbyky].mp4 46.616 MB
Gathering some info...

Register and log in Isohunt and see no captcha anymore!

4000 symbols left
Hash f2cb1fa21765c20ab118656ed664630840742e5b

Related torrents for "Ray J Ft. Bobby Brackins - I Hit It First [Music Video] 720p [Sbyky].mp4"

Torrent search:

hd