Avril Lavigne - Heres To Never Growing Up 2013 M4A+MP4 (1080p) x264 [VX] Verified

Size 50.624 MB   0 seeders     Added 2013-05-16 15:39:38

Stream torrent
Starting‥ You need BitLord! Get it from BitLord.com
To download or stream you need BitLord. Visit them at BitLord.com
							Avril Lavigne - Heres To Never Growing Up 2013 M4A+MP4 (1080p) x264 [VX] [P2PDL]
1080p Full HD MP4 Video
+
128 Kbps/VBR M4A Audio
General
Complete name : Avril Lavigne - Here's To Never Growing Up (1080p) x264 [VX].mp4
Format : MPEG-4
File size : 45.0 MiB
Duration : 3mn 44s
Overall bit rate mode : Variable
Overall bit rate : 1 682 Kbps
Video
Format : AVC
Format profile : High@L4.0
Bit rate : 1 550 Kbps
Width : 1 920 pixels
Height : 1 080 pixels
Display aspect ratio : 16:9
Frame rate mode : Variable
Frame rate : 23.976 fps
Bit depth : 8 bits
Stream size : 41.4 MiB (92%)
Writing library : x264 core 129
Audio
Format : AAC
Bit rate mode : Variable
Channel(s) : 2 channels
Channel positions : Front: L R
Sampling rate : 48.0 KHz
Stream size : 3.40 MiB (8%)
Subtitles : NoScreens:
------------------------------------------------------------------------
Notes:
* Recommended to use latest version VLC Media Player.
* Install shark007 codecs in case of any kind of problem in playback (For non-VLC Media Player users).
* Alternatively, install Core AVC codecs, the fastest decoder that there is coupled with Community Center Codec Pack and play on Windows Media Player Classic.
Encoder Notes:Looking For Early Access To Anything You Can Provide DVDScr, R5, DVDR, BluRay, Direct
Audio, Music Releases and Seedboxes. We require dedicated servers, so as to do more
and fast releases of movies.
If You Got anything to offer contact us at "contact@p2pdl.com".
						
Avril Lavigne - Heres To Never Growing Up 2013 M4A+MP4 (1080p) x264 [VX]/Avril Lavigne - Here's To Never Growing Up (1080p) x264 [VX].mp4 47.179 MB
Avril Lavigne - Heres To Never Growing Up 2013 M4A+MP4 (1080p) x264 [VX]/01 Avril Lavigne - Here's To Never Growing Up.m4a 3.307 MB
Avril Lavigne - Heres To Never Growing Up 2013 M4A+MP4 (1080p) x264 [VX]/Cover.jpg 127.792 KB
Gathering some info...

Register and log in Isohunt and see no captcha anymore!

4000 symbols left
Hash 323301bf1f026c5570cf341a0ffb7903ce1b1195

Related torrents for "Avril Lavigne - Heres To Never Growing Up 2013 M4A+MP4 (1080p) x264 [VX]"

Torrent search:

m4a 2013