Supernatural: The Animation

Supernatural: The Animation (2014)

Full description

Supernatural.S08E23.720p.HDTV.X264-DIMENSION

Size 967.506 MB   0 seeders     Added 2013-05-16 16:21:36

Stream torrent
Starting‥ You need BitLord! Get it from BitLord.com
To download or stream you need BitLord. Visit them at BitLord.com
							http://www.imdb.com/title/tt0460681/
Format : Matroska
Format version : Version 2
File size : 923 MiB
Duration : 41mn 58s
Overall bit rate : 3 073 Kbps
Encoded date : UTC 2013-05-15 21:22:13
Writing application : mkvmerge v3.1.0 ('Happy up here') built on Jan 19 2010 12:09:24
Writing library : libebml v0.7.9 + libmatroska v0.8.1
Video
ID : 1
Format : AVC
Format/Info : Advanced Video Codec
Format profile : High@L4.1
Format settings, CABAC : Yes
Format settings, ReFrames : 8 frames
Codec ID : V_MPEG4/ISO/AVC
Duration : 41mn 58s
Bit rate : 2 628 Kbps
Width : 1 280 pixels
Height : 720 pixels
Display aspect ratio : 16:9
Frame rate : 23.976 fps
Color space : YUV
Chroma subsampling : 4:2:0
Bit depth : 8 bits
Scan type : Progressive
Bits/(Pixel*Frame) : 0.119
Stream size : 789 MiB (86%)
Writing library : x264 core 132 r2310 76a5c3a
Encoding settings : cabac=1 / ref=8 / deblock=1:-2:-2 / analyse=0x3:0x113 / me=umh / subme=9 / psy=1 / psy_rd=1.00:0.00 / mixed_ref=1 / me_range=24 / chroma_me=1 / trellis=1 / 8x8dct=1 / cqm=0 / deadzone=21,11 / fast_pskip=0 / chroma_qp_offset=-2 / threads=18 / lookahead_threads=2 / sliced_threads=0 / nr=0 / decimate=1 / interlaced=0 / bluray_compat=0 / constrained_intra=0 / bframes=5 / b_pyramid=2 / b_adapt=2 / b_bias=0 / direct=3 / weightb=1 / open_gop=0 / weightp=2 / keyint=250 / keyint_min=23 / scenecut=40 / intra_refresh=0 / rc_lookahead=50 / rc=crf / mbtree=1 / crf=18.0 / qcomp=0.60 / qpmin=0 / qpmax=69 / qpstep=4 / ip_ratio=1.40 / aq=1:1.00
Language : English
Default : No
Forced : No
Audio
ID : 2
Format : AC-3
Format/Info : Audio Coding 3
Mode extension : CM (complete main)
Format settings, Endianness : Big
Codec ID : A_AC3
Duration : 41mn 58s
Bit rate mode : Constant
Bit rate : 384 Kbps
Channel(s) : 6 channels
Channel positions : Front: L C R, Side: L R, LFE
Sampling rate : 48.0 KHz
Bit depth : 16 bits
Compression mode : Lossy
Delay relative to video : 400ms
Stream size : 115 MiB (12%)
Default : Yes
Forced : No
						
Supernatural.S08E23.720p.HDTV.X264-DIMENSION/Supernatural.S08E23.720p.HDTV.X264-DIMENSION.mkv 967.505 MB
Supernatural.S08E23.720p.HDTV.X264-DIMENSION/Torrent Downloaded From ExtraTorrent.com.txt 353 B
Gathering some info...

Register and log in Isohunt and see no captcha anymore!

4000 symbols left
Hash 5cc73ddc137d041f5614dde97ad64d71e481f358

Related torrents for "Supernatural.S08E23.720p.HDTV.X264-DIMENSION"

Torrent search:

x264 hdtv season 08 hd episode 23