Sacrifice

Sacrifice (2014)

History

Full description

Supernatural S08E23 Sacrifice HDTV 720p 1280X720 mpg4 Verified

Size 406.103 MB   0 seeders     Added 2013-05-16 18:39:36

Stream torrent
Starting‥ You need BitLord! Get it from 1BitLord.com
To download or stream you need BitLord. Visit them at BitLord.com
							Sacrifice
With Crowley poised to undo all the good they've ever done as hunters, Sam and Dean find themselves cornered. But with Kevin's help, the Winchester brothers bound into one last play against The Demon King. Metatron initiates a plan with Castiel to take on Naomi and the bureaucracy of Heaven.
General
Complete name : Supernatural S08E23 Sacrifice HDTV 720p 1280X720.mp4
Format : MPEG-4
Format profile : Base Media
Codec ID : isom
File size : 384 MiB
Duration : 42mn 29s
Overall bit rate : 1 265 Kbps
Writing application : Lavf54.59.106
Video
ID : 1
Format : AVC
Format/Info : Advanced Video Codec
Format profile : High@L3.1
Format settings, CABAC : Yes
Format settings, ReFrames : 5 frames
Codec ID : avc1
Codec ID/Info : Advanced Video Coding
Duration : 42mn 29s
Bit rate mode : Variable
Bit rate : 1 131 Kbps
Width : 1 280 pixels
Height : 720 pixels
Display aspect ratio : 16:9
Frame rate mode : Variable
Frame rate : 23.976 fps
Minimum frame rate : 0.482 fps
Maximum frame rate : 1 000.000 fps
Color space : YUV
Chroma subsampling : 4:2:0
Bit depth : 8 bits
Scan type : Progressive
Bits/(Pixel*Frame) : 0.051
Stream size : 344 MiB (89%)
Audio
ID : 2
Format : AAC
Format/Info : Advanced Audio Codec
Format profile : LC
Codec ID : 40
Duration : 42mn 29s
Bit rate mode : Constant
Bit rate : 128 Kbps
Channel(s) : 2 channels
Channel positions : Front: L R
Sampling rate : 48.0 KHz
Compression mode : Lossy
Stream size : 38.9 MiB (10%)
Supernatural S08E23 Sacrifice HDTV 720p 1280X720 mpg4/Supernatural S08E23 Sacrifice HDTV 720p 1280X720.mp4 403.142 MB
Supernatural S08E23 Sacrifice HDTV 720p 1280X720 mpg4/vlcsnap-2013-05-16-06h16m24s228.png 1.311 MB
Supernatural S08E23 Sacrifice HDTV 720p 1280X720 mpg4/vlcsnap-2013-05-16-06h20m09s95.png 978.392 KB
Gathering some info...

Register and log in Isohunt and see no captcha anymore!

4000 symbols left
Hash f67b493541283f204cbc9b1c17dda24c43a8c8f3

Related torrents for "Supernatural S08E23 Sacrifice HDTV 720p 1280X720 mpg4"

Torrent search:

hdtv season 08 hd episode 23 2013