imdb
rating

6.9
Jackie

Jackie (2012)

Comedy, Drama

Full description

Caroline And Jackie 2012 WEBRip x264 AC3-INFERNO

Size 1.056 GB   5 seeders     Added 2013-05-16 20:16:35

Stream torrent
Starting‥ You need BitLord! Get it from 1BitLord.com
To download or stream you need BitLord. Visit them at BitLord.com
              ***********************************************

                PublicHash - Largest Bittorrent Community
      
                          http://publichash.com/
    
              ***********************************************

Format: Matroska
Format version: Version 4 / Version 2
File size: 974 MiB
Duration: 1h 25mn
Overall bit rate: 1 599 Kbps
Encoded date: UTC 2013-05-15 22:38:44
Writing application: mkvmerge v6.2.0 ('Promised Land') built on Apr 28 2013 12:22:01
Writing library: libebml v1.3.0 + libmatroska v1.4.0

Video
ID: 1
Format: AVC
Format/Info: Advanced Video Codec
Format profile: High@L4.1
Format settings, CABAC: Yes
Format settings, ReFrames: 5 frames
Codec ID: V_MPEG4/ISO/AVC
Duration: 1h 25mn
Bit rate: 1 149 Kbps
Width: 720 pixels
Height: 384 pixels
Display aspect ratio: 1.85:1
Frame rate mode: Constant
Frame rate: 23.976 fps
Color space: YUV
Chroma subsampling: 4:2:0
Bit depth: 8 bits
Scan type: Progressive
Bits/(Pixel*Frame): 0.173
Stream size: 682 MiB (70%)
Writing library: x264 core 130 r2273 b3065e6
Encoding settings: cabac=1 / ref=5 / deblock=1:0:0 / analyse=0x3:0x113
/ me=umh / subme=11 / psy=1 / psy_rd=1.00:0.15 / mixed_ref=1 / me_range=16 
/ chroma_me=1
/ trellis=2 / 8x8dct=1 / cqm=0 / deadzone=21,11 / fast_pskip=1 
/ chroma_qp_offset=-3 / threads=9
/ lookahead_threads=1 / sliced_threads=0 / nr=0 / decimate=1 
/ interlaced=0 / bluray_compat=0
/ constrained_intra=0 / bframes=3 / b_pyramid=2 / b_adapt=2 / b_bias=0 
/ direct=3 / weightb=1
/ open_gop=0 / weightp=2 / keyint=240 / keyint_min=23 / scenecut=40 
/ intra_refresh=0
/ rc_lookahead=80 / rc=2pass / mbtree=1 / bitrate=1149 / ratetol=1.0 
/ qcomp=0.60 / qpmin=0
/ qpmax=69 / qpstep=4 / cplxblur=20.0 / qblur=0.5 / vbv_maxrate=31250 
/ vbv_bufsize=31250
/ nal_hrd=none / ip_ratio=1.40 / aq=1:1.00
Default: Yes
Forced: No

Audio
ID: 2
Format: AC-3
Format/Info: Audio Coding 3
Mode extension: CM (complete main)
Format settings, Endianness: Big
Codec ID: A_AC3
Duration: 1h 25mn
Bit rate mode: Constant
Bit rate: 448 Kbps
Channel(s): 6 channels
Channel positions: Front: L C R, Side: L R, LFE
Sampling rate: 48.0 KHz
Bit depth: 16 bits
Compression mode: Lossy
Stream size: 273 MiB (28%)
Language: English
Default: Yes
Forced: No

Text
ID: 3
Format: UTF-8
Codec ID: S_TEXT/UTF8
Codec ID/Info: UTF-8 Plain Text
Language: English
Default: Yes
Forced: No

Menu
00:00:00.000: Chapter 1
00:05:00.000: Chapter 2
00:10:00.000: Chapter 3
00:15:00.000: Chapter 4
00:20:00.000: Chapter 5
00:25:00.000: Chapter 6
00:30:00.000: Chapter 7
00:35:00.000: Chapter 8
00:40:00.000: Chapter 9
00:45:00.000: Chapter 10
00:50:00.000: Chapter 11
00:55:00.000: Chapter 12
01:00:00.000: Chapter 13
01:05:00.000: Chapter 14
01:10:00.000: Chapter 15
01:15:00.000: Chapter 16
01:20:00.000: Chapter 17
01:25:00.000: Chapter 18
IMDb Rating: 6.4/10

IMDB link: http://www.imdb.com/title/tt1711016/?ref_=sr_5		
Caroline And Jackie 2012 WEBRip x264 AC3-INFERNO/Caroline And Jackie 2012 WEBRip x264 AC3-INFERNO.mkv 1.022 GB
Caroline And Jackie 2012 WEBRip x264 AC3-INFERNO/Caroline And Jackie 2012 WEBRip x264 AC3-INFERNO.nfo 6.328 KB
Caroline And Jackie 2012 WEBRip x264 AC3-INFERNO/Caroline_and_Jackie-689906695-large.jpg 41.339 KB
Gathering some info...

Register and log in Isohunt and see no captcha anymore!

4000 symbols left
Hash b5b244110147c563ed72af285dd793e594445893

Related torrents for "Caroline And Jackie 2012 WEBRip x264 AC3-INFERNO"

Torrent search:

x264 2012 web-rip