imdb
rating

7.8
Star Trek Into Darkness

Star Trek Into Darkness (2013)

Action, Adventure, Science Fiction

Full description

Star Trek Into Darkness.avi Verified

Size 486.734 MB   0 seeders     Added 2013-05-16 21:01:38

Stream torrent
Starting‥ You need BitLord! Get it from 1BitLord.com
To download or stream you need BitLord. Visit them at BitLord.com
Star Trek Into Darkness.avi

General

Format                                   : AVI
Format/Info                              : Audio Video Interleave
File size                                : 464 MiB
Duration                                 : 1h 59mn
Overall bit rate                         : 541 Kbps
Writing application                      : Lavf52.57.1

Video
Format                                   : xvid
Codec ID                                 : xvid
Duration                                 : 1h 59mn
Width                                    : 640 pixels
Height                                   : 400 pixels
Display aspect ratio                     : 1.600
Frame rate                               : 25.000 fps
Bits/(Pixel*Frame)                       : 0.063
Stream size                              : 343 MiB (74%)

Audio
Format                                   : MPEG Audio
Format version                           : Version 1
Format profile                           : Layer 3
Mode                                     : Joint stereo
Mode extension                           : MS Stereo
Codec ID                                 : 55
Codec ID/Hint                            : MP3
Duration                                 : 1h 59mn
Bit rate mode                            : Constant
Bit rate                                 : 128 Kbps
Channel(s)                               : 2 channels
Sampling rate                            : 48.0 KHz
Compression mode                         : Lossy
Stream size                              : 110 MiB (24%)
Alignment                                : Aligned on interleaves
Interleave, duration                     : 24 ms (0.60 video frame)
Writing library                          : LAME3.98.2


Plot

The USS Enterprise is sent to Planet Nibiru to observe a pre-warp civilization. Captain James T. Kirk and Spock attempt to save the inhabitants from an imminent volcano eruption which would wipe out the civilization. When Spock's life is jeopardized, Kirk breaks the Prime Directive, exposing the Enterprise to the planet's civilization during Spock's rescue. A number of indigenous people begin to worship the ship as it leaves. Called back to Earth, Kirk is demoted to First Officer and Admiral Christopher Pike re-assumes command of the Enterprise. In London, Starfleet agent John Harrison bombs a secret "Section 31" installation. In San Francisco, Pike and his first officer attend an emergency meeting of high ranking officers at Starfleet headquarters. The meeting is attacked by a gunship piloted by Harrison, who kills Pike. Kirk destroys the gunship, but Harrison flees.

With Pike dead, Admiral Alexander Marcus authorizes Kirk to hunt down Harrison, who has used transwarp beaming and fled to the Klingon homeworld of Kronos. Since Kronos lies deep in Klingon territory and the Federation is on the brink of war with the Klingon Empire, the Enterprise is supplied with 72 long-range prototype photon torpedoes, and is ordered to fire them at Harrison's location once he is found. Thinking that the torpedoes could be dangerous to the ship, Montgomery "Scotty" Scott refuses to take them aboard and tenders his resignation, whereupon Pavel Chekov is promoted to Chief Engineer. Admiral Marcus' daughter, scientist Carol Marcus, joins the crew under a false identity.


* enjoy ...		
Star Trek Into Darkness.avi 486.734 MB
Gathering some info...

Register and log in Isohunt and see no captcha anymore!

4000 symbols left
Hash 127c0d450d3a0f15cc08eccf1c3f36c0560a8171

Related torrents for "Star Trek Into Darkness.avi"