imdb
rating

7.8
Star Trek Into Darkness

Star Trek Into Darkness (2013)

Action, Adventure, Science Fiction

Full description

Star.Trek.Into.Darkness.2013.CAM.XViD-FANTA Verified

Size 1.775 GB   17 seeders     Added 2013-05-16 21:58:34

Stream torrent
Starting‥ You need BitLord! Get it from BitLord.com
To download or stream you need BitLord. Visit them at BitLord.com
							http://www.imdb.com/title/tt1408101/
After the crew of the Enterprise find an unstoppable force of terror from within their own organization, Captain Kirk leads a manhunt to a war-zone world to capture a one man weapon of mass destruction. 
Director:
 J.J. Abrams 
Writers:
 Roberto Orci, Alex Kurtzman
Stars:
 Chris Pine, Zachary Quinto, Zoe Saldana
Genres:
 Action | Adventure | Sci-Fi 
Country:
 USA 
Language:
 English | Klingon 
Format : AVI
Format/Info : Audio Video Interleave
Format profile : OpenDML
Format settings : rec
File size : 1.58 GiB
Duration : 2h 5mn
Overall bit rate : 1 803 Kbps
Writing application : AVI-Mux GUI 1.17.8.3, Feb 16 201019:42:50
Video
ID : 0
Format : MPEG-4 Visual
Format profile : Advanced Simple@L5
Format settings, BVOP : 1
Format settings, QPel : No
Format settings, GMC : No warppoints
Format settings, Matrix : Default (H.263)
Muxing mode : Packed bitstream
Codec ID : XVID
Codec ID/Hint : XviD
Duration : 2h 5mn
Bit rate : 1 606 Kbps
Width : 720 pixels
Height : 304 pixels
Display aspect ratio : 2.35:1
Frame rate : 23.976 fps
Color space : YUV
Chroma subsampling : 4:2:0
Bit depth : 8 bits
Scan type : Progressive
Compression mode : Lossy
Bits/(Pixel*Frame) : 0.306
Stream size : 1.40 GiB (89%)
Writing library : XviD 64
Audio
ID : 1
Format : AC-3
Format/Info : Audio Coding 3
Mode extension : CM (complete main)
Format settings, Endianness : Big
Codec ID : 2000
Duration : 2h 5mn
Bit rate mode : Constant
Bit rate : 192 Kbps
Channel(s) : 2 channels
Channel positions : Front: L R
Sampling rate : 48.0 KHz
Bit depth : 16 bits
Compression mode : Lossy
Stream size : 172 MiB (11%)
Alignment : Aligned on interleaves
Interleave, duration : 64 ms (1.53 video frames)
Interleave, preload duration : 192 ms
Title : Star Trek-audio
						
Star.Trek.Into.Darkness.2013.CAM.XViD-FANTA/nf0.nfo 6.067 KB
Star.Trek.Into.Darkness.2013.CAM.XViD-FANTA/Star.Trek.Into.Darkness.2013.CAM.XViD-FANTA-SAMPLE.avi 83.721 MB
Star.Trek.Into.Darkness.2013.CAM.XViD-FANTA/Star.Trek.Into.Darkness.2013.CAM.XViD-FANTA.avi 1.692 GB
Gathering some info...

Register and log in Isohunt and see no captcha anymore!

4000 symbols left
Hash ad6742445308faa0b2a39320f7a324b6c6751f21

Related torrents for "Star.Trek.Into.Darkness.2013.CAM.XViD-FANTA"

Torrent search:

cam 2013