A...

A... (2013)

Full description
quality   dvdrip dvdr x264 hd bd hdtv

Cycling.With.Moliere.[Alceste.A.Bicyclette].2013.BRRip.XviD.HORiZON-ArtSubs Verified

Size 1.809 GB   3 seeders     Added 2013-05-16 22:01:35

Stream torrent
Starting‥ You need BitLord! Get it from BitLord.com
To download or stream you need BitLord. Visit them at BitLord.com
Title:
Cycling With Moliere Aka Alceste A Bicyclette

Country:
France/2013

Language:
French

Subtitle:
English

Director:
Philippe Le Guay

Writers:
Philippe Le Guay (original idea), Fabrice Luchini (original idea)

Stars:
Fabrice Luchini, Lambert Wilson, Maya Sansa

Synopsis:
A once great actor, Serge Tanneur (Fabrice Luchini), has retired from the limelight. Too much pressure meant that one day, he simply decided he would act no more. For the past three years, he has lived in solitude on the Île de Ré, spending his time cycling through the windswept landscape. Fellow actor Gauthier Valence (Lambert Wilson), whose career is flying high, is planning a production of Molière’s play The Misanthrope and wants to offer Serge the title role.
Gauthier is convinced he will accept, since Serge himself has become a misanthrope, withdrawn from society and raging against the world. It would be wonderful to see him return in that part. But Serge plays hard to get. Instead of committing, he suggests they rehearse together for the week. Things look to be going well, especially when a mysterious Italian divorcee (Maya Sansa) brings a romantic spark into his life. With the play’s producer, Gauthier’s agent and his lover all arriving on the island at the weekend, the pressure is on Serge to make up his mind. Is he merely toying with Gauthier, or does he really intend to take to the stage once more?

Imdb: 
http://www.imdb.com/title/tt2207050/

Trailer: 
http://www.bandes-annonces.fr/film-2012/bande-annonce-alcesteabicyclette.html

Media Info:

General
Complete name                            : Cycling.With.Moliere.[Alceste.A.Bicyclette].2013.BRRip.XviD.HORiZON-ArtSubs
Format                                   : AVI
Format/Info                              : Audio Video Interleave
Format profile                           : OpenDML
File size                                : 1.68 GiB
Duration                                 : 1h 45mn
Overall bit rate                         : 2 290 Kbps
Writing application                      : Lavf52.94.0

Video
ID                                       : 0
Format                                   : MPEG-4 Visual
Format profile                           : Simple@L3
Format settings, BVOP                    : No
Format settings, QPel                    : No
Format settings, GMC                     : No warppoints
Format settings, Matrix                  : Default (H.263)
Codec ID                                 : XVID
Codec ID/Hint                            : XviD
Duration                                 : 1h 45mn
Bit rate                                 : 2 055 Kbps
Width                                    : 1 280 pixels
Height                                   : 688 pixels
Display aspect ratio                     : 1.85:1
Frame rate                               : 23.976 fps
Color space                              : YUV
Chroma subsampling                       : 4:2:0
Bit depth                                : 8 bits
Scan type                                : Progressive
Compression mode                         : Lossy
Bits/(Pixel*Frame)                       : 0.097
Stream size                              : 1.51 GiB (90%)
Writing library                          : XviD 1.2.1 (UTC 2008-12-04)

Audio
ID                                       : 1
Format                                   : AC-3
Format/Info                              : Audio Coding 3
Mode extension                           : CM (complete main)
Format settings, Endianness              : Big
Codec ID                                 : 2000
Duration                                 : 1h 45mn
Bit rate mode                            : Constant
Bit rate                                 : 224 Kbps
Channel(s)                               : 2 channels
Channel positions                        : Front: L R
Sampling rate                            : 48.0 KHz
Bit depth                                : 16 bits
Compression mode                         : Lossy
Stream size                              : 169 MiB (10%)
Alignment                                : Aligned on interleaves
Interleave, duration                     : 32 ms (0.77 video frame)
Interleave, preload duration             : 32 ms

		
Cycling.With.Moliere.[Alceste.A.Bicyclette].2013.BRRip.XviD.HORiZON-ArtSubs/Cycling.With.Moliere.[Alceste.A.Bicyclette].2013.BRRip.XviD.HORiZON-ArtSubs.avi 1.809 GB
Cycling.With.Moliere.[Alceste.A.Bicyclette].2013.BRRip.XviD.HORiZON-ArtSubs/Cycling.With.Moliere.[Alceste.A.Bicyclette].2013.BRRip.XviD.HORiZON-ArtSubs.srt 118.231 KB
Gathering some info...

Register and log in Isohunt and see no captcha anymore!

4000 symbols left
Hash 6148c4ee4d924da61ccf66cae04baaf014d6896e

Related torrents for "Cycling.With.Moliere.[Alceste.A.Bicyclette].2013.BRRip.XviD.HORiZON-ArtSubs"

Torrent search:

bd 2013