imdb
rating

7.9
Taken

Taken (2008)

Action, Crime, Thriller

Full description

Io Vi Troverò - Taken (2008)

Size 1.515 GB   27 seeders     Added 2013-05-17 00:21:52

Stream torrent
Starting‥ You need BitLord! Get it from 1BitLord.com
To download or stream you need BitLord. Visit them at BitLord.com
							Taken - Io Vi Troverò (2008) [XviD - Italian English Ac3 5.1 - Sub Ita Eng] MIRCrew [TNT Village]
Io Vi Troverò - Taken (2008)
Titolo originale 	Taken
Lingua originale 	inglese, francese
Paese di produzione 	Francia
Anno 	2008
Durata 	93 min.
Rapporto 	2.35 : 1
Genere 	azione, thriller
Regia 	Pierre Morel
Soggetto 	Luc Besson, Robert Mark Kamen
Sceneggiatura 	Luc Besson, Robert Mark Kamen
Produttore 	Luc Besson, Pierre-Ange Le Pogam, India Osborne
Casa di produzione 	Europa Corp.
Distribuzione (Italia) 	20th Century Fox
Fotografia 	Michel Abramowicz
Montaggio 	Frédéric Thoraval
Musiche 	Nathaniel Mechaly, Pauline de Saxe, Ghinzu
Scenografia 	Hugues Tissandier
 Liam Neeson: Bryan Mills
 Maggie Grace: Kim Mills
 Famke Janssen: Lenore
 Xander Berkeley: Stuart
 Katie Cassidy: Amanda
 Olivier Rabourdin: Jean Claude
 Leland Orser: Sam
 Jon Gries: Casey
 David Warshofsky: Bernie
 Camille Japy: Isabelle
 Nathan Rippy: Victor
 Holly Valance: Sheerah
 Nicolas Giraud: Peter
 Gérard Watkins: Saint Clair
 Arben Bajraktaraj: Marko
 Jalil Naciri: Ali
Doppiatori italiani
 Alessandro Rossi: Bryan Mills
 Letizia Scifoni: Kim Mills
 Cristina Boraschi: Lenore
 Angelo Nicotra: Stuart
 Domitilla D'Amico: Amanda
 Marco Rasori: Jean Claude
 Gaetano Varcasia: Sam
 Roberto Draghetti: Casey
 Claudio Fattoretto: Bernie
 Sabrina Duranti: Sheerah
 Fredrick Lachkar: Peter
 Gilles Cuomo: Saint Clair
 Simone Mori: Marko
 Roberto Gammino: Ali
Los Angeles. Bryan è un ex-agente segreto della CIA, ormai in pensione. Grande esperto di arti marziali e uso delle armi, dotato di una impressionante capacità di uccidere e/o torturare 
persone fino alla follia a sangue freddo, senza impressionarsi o provare il minimo rimorso, svolge ormai piccoli lavori saltuari come guardia del corpo delle star (tra le persone che 
protegge c'è anche la pop star Sheerah, che salva da una aggressione).
La sua vita privata però non è affatto piacevole. È divorziato e vede raramente la figlia diciassettenne Kim, che vive assieme alla madre Lenore, la quale ha un nuovo compagno molto ricco 
che impone impedimenti alla comunicazione tra il padre e la figlia, che comunque si vogliono molto bene. Un giorno Kim dice al padre di voler andare in vacanza a Parigi assieme all'amica 
Amanda, di due anni maggiore di lei, che è stata invitata dalle sue cugine. Bryan è dapprima dubbioso e premuroso, alla fine si fa convincere da Lenore e cede, ma non senza fare mille 
raccomandazioni alla figlia prima della partenza..................
Seventeen year-old Kim is the pride and joy of her father Bryan Mills. Bryan is a retired agent who left the Central Intelligence Agency to be near Kim in California. Kim lives with her 
mother Lenore and her wealthy stepfather Stuart. Kim manages to convince her reluctant father to allow her to travel to Paris with her friend Amanda. When the girls arrive in Paris they 
share a cab with a stranger named Peter, and Amanda lets it slip that they are alone in Paris. Using this information an Albanian gang of human traffickers kidnaps the girls. Kim barely has 
time to call her father and give him information.................
[spoiler]
General
Complete name : Io Vi Troverò - Taken (2008)\Io Vi Troverò - Taken (2008).avi
Format : AVI
Format/Info : Audio Video Interleave
File size : 1.41 GiB
Duration : 1h 29mn
Overall bit rate : 2 250 Kbps
Writing application : VirtualDubMod 1.5.10.2 (build 2540/release)
Writing library : VirtualDubMod build 2540/release
Video
ID : 0
Format : MPEG-4 Visual
Format profile : Simple@L1
Format settings, BVOP : No
Format settings, QPel : No
Format settings, GMC : No warppoints
Format settings, Matrix : Default (H.263)
Codec ID : DX50
Codec ID/Hint : DivX 5
Duration : 1h 29mn
Bit rate : 1 401 Kbps
Width : 688 pixels
Height : 288 pixels
Display aspect ratio : 2.35:1
Frame rate : 29.970 fps
Color space : YUV
Chroma subsampling : 4:2:0
Bit depth : 8 bits
Scan type : Interlaced
Scan order : Top Field First
Bits/(Pixel*Frame) : 0.236
Stream size : 897 MiB (62%)
Writing library : Lavc52.30.1
Audio #1
ID : 1
Format : AC-3
Format/Info : Audio Coding 3
Mode extension : CM (complete main)
Codec ID : 2000
Duration : 1h 29mn
Bit rate mode : Constant
Bit rate : 384 Kbps
Channel(s) : 6 channels
Channel positions : Front: L C R, Side: L R, LFE
Sampling rate : 48.0 KHz
Bit depth : 16 bits
Stream size : 245 MiB (17%)
Alignment : Split accross interleaves
Interleave, duration : 33 ms (1.00 video frame)
Interleave, preload duration : 500 ms
Audio #2
ID : 2
Format : AC-3
Format/Info : Audio Coding 3
Mode extension : CM (complete main)
Codec ID : 2000
Duration : 1h 29mn
Bit rate mode : Constant
Bit rate : 448 Kbps
Channel(s) : 6 channels
Channel positions : Front: L C R, Side: L R, LFE
Sampling rate : 48.0 KHz
Bit depth : 16 bits
Stream size : 286 MiB (20%)
Alignment : Split accross interleaves
Interleave, duration : 33 ms (1.00 video frame)
Interleave, preload duration : 500 ms
[/spoiler]
Io Vi Troverò - Taken (2008)/Io Vi Troverò - Taken (2008).avi 1.51 GB
Io Vi Troverò - Taken (2008)/Io Vi Troverò - Taken (2008).idx 87.997 KB
Io Vi Troverò - Taken (2008)/Io Vi Troverò - Taken (2008).sub 5.255 MB
Gathering some info...

Register and log in Isohunt and see no captcha anymore!

4000 symbols left
Hash 9888216b361fc2fed37cf1a65b30cfd8e32bcfdc

Related torrents for "Io Vi Troverò - Taken (2008)"

Torrent search:

2008