Iron Man 2013 R6 Line XviD Feel-Free

Size 1.616 GB   0 seeders     Added 2013-05-17 01:04:33

Stream torrent
Starting‥ You need BitLord! Get it from BitLord.com
To download or stream you need BitLord. Visit them at BitLord.com
							IMDb:http://www.imdb.com/title/tt1300854/
Source:R6/UnKnOwN Thanks
Sample:Never
Encoder:Tony
Format : AVI
Format/Info : Audio Video Interleave
File size : 1.50 GiB
Duration : 2h 2mn
Overall bit rate : 1 763 Kbps
Writing application : VirtualDubMod 1.5.10.2 (build 2540/release)
Writing library : VirtualDubMod build 2540/release
Video
ID : 0
Format : MPEG-4 Visual
Format profile : Advanced Simple@L5
Format settings, BVOP : 1
Format settings, QPel : No
Format settings, GMC : No warppoints
Format settings, Matrix : Default (H.263)
Codec ID : XVID
Codec ID/Hint : XviD
Duration : 2h 2mn
Bit rate : 1 591 Kbps
Width : 640 pixels
Height : 264 pixels
Display aspect ratio : 2.40:1
Frame rate : 29.970 fps
Color space : YUV
Chroma subsampling : 4:2:0
Bit depth : 8 bits
Scan type : Progressive
Compression mode : Lossy
Bits/(Pixel*Frame) : 0.314
Stream size : 1.36 GiB (90%)
Writing library : XviD 1.2.1 (UTC 2008-12-04)
Audio
ID : 1
Format : AC-3
Format/Info : Audio Coding 3
Mode extension : CM (complete main)
Codec ID : 2000
Duration : 2h 2mn
Bit rate mode : Constant
Bit rate : 160 Kbps
Channel(s) : 2 channels
Channel positions : Front: L R
Sampling rate : 48.0 KHz
Bit depth : 16 bits
Compression mode : Lossy
Stream size : 140 MiB (9%)
Alignment : Aligned on interleaves
Interleave, duration : 33 ms (1.00 video frame)
Interleave, preload duration : 512 ms
Screens:
						
Iron Man 2013 R6 Line XviD Feel-Free/Iron Man 2013 R6 Line XviD Feel-Free.avi 1.615 GB
Iron Man 2013 R6 Line XviD Feel-Free/Iron Man 2013 R6 Line XviD Feel-Free.nfo 2.866 KB
Iron Man 2013 R6 Line XviD Feel-Free/vlcsnap-2013-05-16-20h44m58s218.png 160.235 KB
Gathering some info...

Register and log in Isohunt and see no captcha anymore!

4000 symbols left
Hash fa80239ae582c953d7305a38dc16dd9c1a1f26a5