Corbari (1970) DVDRip - RadioResearch

Size 1.065 GB   0 seeders     Added 2013-05-17 06:02:35

Stream torrent
Starting‥ You need BitLord! Get it from BitLord.com
To download or stream you need BitLord. Visit them at BitLord.com
*******************************************************************************
                     Corbari (1970) DVDRip - RadioResearch
*******************************************************************************

-------------------------------------------------------------------------------
                              General Information
-------------------------------------------------------------------------------
Type.................: Movie



Video Format.........: AVI
Video Bitrate........: 1463
Resolution...........: 720 x 310
Color................: 8 bit
FPS..................: 29.970
Source...............: DVD 2.35:1
Original Format......: PAL
Genre................: War
IMDb Rating..........: 6.2
Movie Information....: http://www.imdb.com/title/tt0167085/

-------------------------------------------------------------------------------
                               Post Information
-------------------------------------------------------------------------------
Posted by............: RadioResearch
Posted on............: 5/16/2013

-------------------------------------------------------------------------------
                                 Release Notes
-------------------------------------------------------------------------------
SEEDBOX SUPPORTED!!

From IMDB:
"The real story of the partisan Silvio Corbari. He starts his career killing 
publicly one of his friends that was a fascist. Than, he set up a band of 
partisans in north Italy, completely independent from the Italian organized 
resistance (CLN). Ines, leave his husband to join the band and became Silvio's 
lover. Silvio Corbari succeeded also to set up a free-zone, his personal 
republic, independent from the Nazi occupied Italy, in a little village called 
Tregnano. But the opponent Nazi-Fascist army is too much for any kind of 
resistance, especially if not included in the organized CNL. All his partisan 
friends are captured and sentenced to death, Ines, close to be captured, 
suicides. Corbari, even if survives to a first hanging, can't escape to a second 
one. After WWII he deserved a gold medal to the memory from the Italian 
Republic."

Another one of the rarer, lost Macaroni Combat films.  Italy, for the most part, 
always likes to present itself as a victim in WWII, but it was part of the Axis, 
as we all know.  This film attempts to glorify a national hero, Corbari the 
Partisan.  In itself, it's a good film and the execution scenes are a bit on the 
realistic side.  It's a good one to have in your collection.

This was ripped from a Thai release.  I have not seen it available anywhere 
else.  Funny how one has to go to the other side of the globe to find films that 
should be available on DVD at home!

Enjoy!

RadioResearch

General
Complete name                            : G:Corbari (1970) DVDRip - 
RadioResearchCorbari - {RadioResearch}.avi
Format                                   : AVI
Format/Info                              : Audio Video Interleave
File size                                : 1 015 MiB
Duration                                 : 1h 37mn
Overall bit rate                         : 1 463 Kbps
Movie name                               : CORBARI.Title1.DVDRip
Writing application                      : Lavf53.32.100
Original source form/Name                : CORBARI

Video
ID                                       : 0
Format                                   : MPEG-4 Visual
Format profile                           : Advanced Simple@L5
Format settings, BVOP                    : 2
Format settings, QPel                    : No
Format settings, GMC                     : No warppoints
Format settings, Matrix                  : Default (H.263)
Muxing mode                              : Packed bitstream
Codec ID                                 : XVID
Codec ID/Hint                            : XviD
Duration                                 : 1h 37mn
Bit rate                                 : 1 003 Kbps
Width                                    : 720 pixels
Height                                   : 310 pixels
Display aspect ratio                     : 2.35:1
Frame rate                               : 29.970 fps
Color space                              : YUV
Chroma subsampling                       : 4:2:0
Bit depth                                : 8 bits
Scan type                                : Progressive
Compression mode                         : Lossy
Bits/(Pixel*Frame)                       : 0.150
Stream size                              : 696 MiB (69%)
Writing library                          : XviD 64

Audio
ID                                       : 1
Format                                   : AC-3
Format/Info                              : Audio Coding 3
Mode extension                           : CM (complete main)
Format settings, Endianness              : Big
Codec ID                                 : 2000
Duration                                 : 1h 37mn
Bit rate mode                            : Constant
Bit rate                                 : 448 Kbps
Channel(s)                               : 6 channels
Channel positions                        : Front: L C R, Side: L R, LFE
Sampling rate                            : 48.0 KHz
Bit depth                                : 16 bits
Compression mode                         : Lossy
Stream size                              : 311 MiB (31%)
Alignment                                : Aligned on interleaves
Interleave, duration                     : 32 ms (0.96 video frame)

AVI FILE MD5 HASH  4d4fd4e9c03590ac5c5d4d93d592ac58



-------------------------------------------------------------------------------
Generated with Cool NFO Creator - http://fly.to/coolbeans
-------------------------------------------------------------------------------
		
Corbari (1970) DVDRip - RadioResearch/info.txt 2.815 KB
Corbari (1970) DVDRip - RadioResearch/RadioResearch.nfo 5.928 KB
Corbari (1970) DVDRip - RadioResearch/Corbari - {RadioResearch}.avi 1.065 GB
Gathering some info...

Register and log in Isohunt and see no captcha anymore!

4000 symbols left
Hash a369caa40bd91bbb085e74aafe73791c3d5ad88d