imdb
rating

6.1
Welcome to the Punch

Welcome to the Punch (2013)

Action, Adventure, Crime

Full description

Welcome To The Punch 2013 BRRip 480p x264 - VYTO [P2PDL]

Size 372.678 MB   0 seeders     Added 2013-05-17 08:01:36

Stream torrent
Starting‥ You need BitLord! Get it from BitLord.com
To download or stream you need BitLord. Visit them at BitLord.com
							Welcome To The Punch 2013 BRRip 480p x264 - VYTOGenre: Action | Adventure | Crime
Plot: Ex-criminal Jacob Sternwood is forced to return to London when his son is involved in a heist gone
wrong. This gives his nemesis, detective Max Lewinsky, one last chance to catch the man he's always been
after. 
Director: Eran Creevy
Stars: James McAvoy, Andrea Riseborough, Mark Strong.
Rated: R for violence and language.Info:http://www.imdb.com/title/tt1684233/Trailer:https://www.youtube.com/watch?v=QvaB5C-6tyoFormat : MPEG-4
File size : 351 MiB
Duration : 1h 46mn
Overall bit rate : 461 Kbps
Source : 720p.Bluray.x264.DTS-NYDIC
Video
Format : AVC
Bit rate : 448 Kbps
Width : 720 pixels
Height : 400 pixels
Display aspect ratio : 16:9
Frame rate mode : Constant
Frame rate : 23.976 fps
Stream size : 319 MiB (91%)
Writing library : x264 core 130 r2273
Audio
ID : 2
Bit rate mode : Variable
Bit rate : 40.0 Kbps
Channel(s) : 2 channels
Channel positions : Front: L R
Sampling rate : 44.1 KHz
Stream size : 30.5 MiB (9%)
Language : English
Subtitle : N/aScreenshots:
----------------------------------------------------------------------------------------------------Encoded using revolutionary 10bit encoding, which enables us to provide you more crispier 
and sharper images at small sizes, just make sure you follow our instructions without a fault.
Recommend to you to use latest version of VLC player. Install K-Lite Codec Pack or shark007 codecs
in case of any kind of problem in playback (For non-VLC Media Player users). Alternatively, install
Core AVC codecs, the fastest decoder that there is coupled with Community Center Codec Pack and play
on Windows Media Player Classic. Check sample to be sure.
Enjoy!
Encoder Notes: Looking For Early Access To Anything You Can Provide DVDScr, R5, DVDR, BluRay, Direct
Audio, Music Releases and Seedboxes. We require dedicated servers, so as to do more and fast releases of movies.
If You Got anything to offer contact us at "contact@p2pdl.com".
						
Welcome To The Punch 2013 BRRip 480p x264 - VYTO [P2PDL]/Welcome To The Punch 2013 BRRip 480p x264 - VYTO/Welcome To The Punch 2013 BRRip 480p x264 - VYTO.mp4 368.418 MB
Welcome To The Punch 2013 BRRip 480p x264 - VYTO [P2PDL]/Sample.mp4 4.255 MB
Welcome To The Punch 2013 BRRip 480p x264 - VYTO [P2PDL]/Welcome To The Punch 2013 BRRip 480p x264 - VYTO/Welcome To The Punch 2013 BRRip 480p x264 - VYTO.nfo 4.935 KB
Gathering some info...

Register and log in Isohunt and see no captcha anymore!

4000 symbols left
Hash 018e973b054defa30c1bf771d5f4d9e999db7678

Related torrents for "Welcome To The Punch 2013 BRRip 480p x264 - VYTO [P2PDL]"

Torrent search:

x264 bd 2013