Pusha T - Numbers On The Boards [Explicit] 720p [Sbyky].mp4

Size 25.642 MB   0 seeders     Added 2013-05-17 09:50:35

Stream torrent
Starting‥ You need BitLord! Get it from BitLord.com
To download or stream you need BitLord. Visit them at BitLord.com
General
Complete name : Pusha T - Numbers On The Boards [Explicit] 720p [Sbyky].mp4
Format : MPEG-4
Format profile : Base Media / Version 2
Codec ID : mp42
File size : 24.5 MiB
Duration : 2mn 42s
Overall bit rate mode : Variable
Overall bit rate : 1 259 Kbps
Encoded date : UTC 2013-05-07 16:43:32
Tagged date : UTC 2013-05-07 16:43:32
Video
ID : 1
Format : AVC
Format/Info : Advanced Video Codec
Format profile : [email protected]
/*  */

Format settings, CABAC : Yes
Format settings, ReFrames : 1 frame
Codec ID : avc1
Codec ID/Info : Advanced Video Coding
Duration : 2mn 42s
Bit rate : 1 065 Kbps
Maximum bit rate : 4 609 Kbps
Width : 1 280 pixels
Height : 720 pixels
Display aspect ratio : 16:9
Frame rate mode : Constant
Frame rate : 25.000 fps
Color space : YUV
Chroma subsampling : 4:2:0
Bit depth : 8 bits
Scan type : Progressive
Bits/(Pixel*Frame) : 0.046
Stream size : 20.7 MiB (85%)
Tagged date : UTC 2013-05-07 16:43:34
Audio
ID : 2
Format : AAC
Format/Info : Advanced Audio Codec
Format profile : LC
Codec ID : 40
Duration : 2mn 42s
Bit rate mode : Variable
Bit rate : 192 Kbps
Maximum bit rate : 202 Kbps
Channel(s) : 2 channels
Channel positions : Front: L R
Sampling rate : 44.1 KHz
Compression mode : Lossy
Stream size : 3.73 MiB (15%)
Title : IsoMedia File Produced by Google, 5-11-2011
Encoded date : UTC 2013-05-07 16:43:33
Tagged date : UTC 2013-05-07 16:43:34
Shared By Sbyky
Pusha T - Numbers On The Boards [Explicit] 720p [Sbyky].mp4 25.642 MB
Gathering some info...

Register and log in Isohunt and see no captcha anymore!

4000 symbols left
Hash f5273a44358f56679e824bf5d14b240fa8d0ddae

Related torrents for "Pusha T - Numbers On The Boards [Explicit] 720p [Sbyky].mp4"