impact.wrestling.2013.05.016-WD

Size 2.148 GB   0 seeders     Added 2013-05-17 23:34:50

Stream torrent
Starting‥ You need BitLord! Get it from 1BitLord.com
To download or stream you need BitLord. Visit them at BitLord.com
impact.wrestling.2013.05.016-WD

[IMG]image[/IMG]
   
Format                                   : MPEG-4

Format profile                           : Base Media
Codec ID                                 : isom
File size                                : 2.00 GiB
Duration                                 : 1h 24mn
Overall bit rate mode                    : Variable
Overall bit rate                         : 3 396 Kbps
Encoded date                             : UTC 2013-05-17 09:47:09
Tagged date                              : UTC 2013-05-17 09:47:09
Writing application                      : Lavf51.12.1
 
Video
ID                                       : 1
Format                                   : AVC
Format/Info                              : Advanced Video Codec
Format profile                           : Baseline@L3.0
Format settings, CABAC                   : No
Format settings, ReFrames                : 1 frame
Format settings, GOP                     : M=1, N=12
Codec ID                                 : avc1
Codec ID/Info                            : Advanced Video Coding
Duration                                 : 1h 24mn
Bit rate                                 : 3 232 Kbps
Width                                    : 704 pixels
Height                                   : 400 pixels
Display aspect ratio                     : 16:9
Frame rate mode                          : Variable
Frame rate                               : 30.000 fps
Minimum frame rate                       : 3.333 fps
Maximum frame rate                       : 30.000 fps
Color space                              : YUV
Chroma subsampling                       : 4:2:0
Bit depth                                : 8 bits
Scan type                                : Progressive
Bits/(Pixel*Frame)                       : 0.383
Stream size                              : 1.90 GiB (95%)
Encoded date                             : UTC 2013-05-17 09:47:09
Tagged date                              : UTC 2013-05-17 09:47:09

Audio
ID                                       : 2
Format                                   : AAC
Format/Info                              : Advanced Audio Codec
Format profile                           : LC
Codec ID                                 : 40
Duration                                 : 1h 24mn
Bit rate mode                            : Variable
Bit rate                                 : 159 Kbps
Channel(s)                               : 2 channels
Channel positions                        : Front: L R
Sampling rate                            : 48.0 KHz
Compression mode                         : Lossy
Stream size                              : 96.1 MiB (5%)
Encoded date                             : UTC 2013-05-17 09:47:09
Tagged date                              : UTC 2013-05-17 09:47:09
		
impact.wrestling.2013.05.016-WD/impact.wrestling.2013.05.016-WD.mp4 2.148 GB
impact.wrestling.2013.05.016-WD/README.WrestlingDesires.com.txt 1.085 KB
Gathering some info...

Register and log in Isohunt and see no captcha anymore!

4000 symbols left
Hash 2ca6c283729f01de9958afab3415c75089c2c361