imdb
rating

7.5
The Duellists

The Duellists (1977)

Drama, War

Full description
quality   dvdrip x264 hd bd fullhd h264

The Duellist 1977 720p BRRip x264 MP4 AAC-CC

Size 2.978 GB   11 seeders     Added 2013-05-18 02:48:35

Stream torrent
Starting‥ You need BitLord! Get it from 1BitLord.com
To download or stream you need BitLord. Visit them at BitLord.com
 http://www.imdb.com/title/tt0075968/

Source: The.Duellists.1977.720p.BluRay.x264-Japhson [PublicHD] Thanks!

Subs: Brazilian, Dutch, English, French, Greek, Portuguese, Romanian.

Sample and Screens included.

General
Complete name                            : The Duellists 1977 720p BRRip x264 MP4 AAC-CC.mp4
Format                                   : MPEG-4
Format profile                           : Base Media
Codec ID                                 : isom
File size                                : 2.74 GiB
Duration                                 : 1h 40mn
Overall bit rate mode                    : Variable
Overall bit rate                         : 3 900 Kbps
Encoded date                             : UTC 2013-05-05 15:28:42
Tagged date                              : UTC 2013-05-05 15:28:42
Writing application                      : Yamb 2.1.0.0 

Video
ID                                       : 1
Format                                   : AVC
Format/Info                              : Advanced Video Codec
Format profile                           : High@L4.1
Format settings, CABAC                   : Yes
Format settings, ReFrames                : 5 frames
Codec ID                                 : avc1
Codec ID/Info                            : Advanced Video Coding
Duration                                 : 1h 40mn
Bit rate                                 : 3 589 Kbps
Maximum bit rate                         : 26.6 Mbps
Width                                    : 1 280 pixels
Height                                   : 720 pixels
Display aspect ratio                     : 16:9
Frame rate mode                          : Variable
Frame rate                               : 23.976 fps
Minimum frame rate                       : 19.048 fps
Maximum frame rate                       : 24.390 fps
Color space                              : YUV
Chroma subsampling                       : 4:2:0
Bit depth                                : 8 bits
Scan type                                : Progressive
Bits/(Pixel*Frame)                       : 0.162
Stream size                              : 2.47 GiB (90%)
Writing library                          : x264 core 112
Encoding settings                        : cabac=1 / ref=5 / deblock=1:0:0 / analyse=0x3:0x113 / me=hex / subme=7 / psy=1 / psy_rd=1.00:0.00 / mixed_ref=1 / me_range=16 / chroma_me=1 / trellis=1 / 8x8dct=1 / cqm=0 / deadzone=21,11 / fast_pskip=1 / chroma_qp_offset=-2 / threads=3 / sliced_threads=0 / nr=0 / decimate=1 / interlaced=0 / constrained_intra=0 / bframes=5 / b_pyramid=2 / b_adapt=2 / b_bias=0 / direct=1 / weightb=1 / open_gop=0 / weightp=2 / keyint=240 / keyint_min=23 / scenecut=40 / intra_refresh=0 / rc_lookahead=50 / rc=abr / mbtree=1 / bitrate=3589 / ratetol=1.0 / qcomp=0.60 / qpmin=3 / qpmax=51 / qpstep=4 / ip_ratio=1.40 / aq=1:1.00
Encoded date                             : UTC 2013-05-06 05:54:02
Tagged date                              : UTC 2013-05-05 15:32:14
Color primaries                          : BT.709
Transfer characteristics                 : BT.709
Matrix coefficients                      : BT.709

Audio
ID                                       : 2
Format                                   : AAC
Format/Info                              : Advanced Audio Codec
Format profile                           : LC
Codec ID                                 : 40
Duration                                 : 1h 40mn
Bit rate mode                            : Variable
Bit rate                                 : 384 Kbps
Maximum bit rate                         : 716 Kbps
Channel(s)                               : 6 channels
Channel positions                        : Front: L C R, Side: L R, LFE
Sampling rate                            : 48.0 KHz
Compression mode                         : Lossy
Delay relative to video                  : 83ms
Stream size                              : 276 MiB (10%)
Language                                 : English
Encoded date                             : UTC 2013-05-05 15:31:25
Tagged date                              : UTC 2013-05-05 15:32:14

Enjoy...

Requested by majmi

Coming soon: The Secret in Their Eyes 2009, Shadows of A Doubt, and more...		
The Duellist 1977 720p BRRip x264 MP4 AAC-CC/Sample/Sample.mp4 29.011 MB
The Duellist 1977 720p BRRip x264 MP4 AAC-CC/Screens-Info/The Duellist 1977 720p BRRip x264 MP4 AAC-CC.mp4_snapshot_01.23.08.png 1.762 MB
The Duellist 1977 720p BRRip x264 MP4 AAC-CC/Screens-Info/The Duellist 1977 720p BRRip x264 MP4 AAC-CC.mp4_snapshot_00.43.11.png 1.699 MB
Gathering some info...

Register and log in Isohunt and see no captcha anymore!

4000 symbols left
Hash 93d155a88532a5f729aa24495322b7d96682d44c

Related torrents for "The Duellist 1977 720p BRRip x264 MP4 AAC-CC"

Torrent search:

x264 hd 1977 bd