imdb
rating

8.0
The Man from Earth

The Man from Earth (2007)

Drama, Fantasy

Full description
quality   dvdrip bd hd x264 fullhd hdtv

[ www.Torrenting.com ] - The.Man.From.Earth.2007.BRRip.Xvid.RoSubbed-playXD

Size 740.202 MB   0 seeders     Added 2013-05-18 03:01:37

Stream torrent
Starting‥ You need BitLord! Get it from BitLord.com
To download or stream you need BitLord. Visit them at BitLord.com
							The.Man.From.Earth.2007.BRRip.Xvid.RoSubbed-playXD.avi
Format: AVI
Format/Info: Audio Video Interleave
File size: 695 MiB
Duration: 1h 27mn
Overall bit rate: 1 116 Kbps

Video
ID: 0
Format: MPEG-4 Visual
Format profile: Advanced Simple@L5
Format settings, BVOP: 2
Format settings, QPel: No
Format settings, GMC: No warppoints
Format settings, Matrix: Default (H.263)
Codec ID: XVID
Codec ID/Hint: XviD
Duration: 1h 27mn
Bit rate: 982 Kbps
Width: 640 pixels
Height: 352 pixels
Display aspect ratio: 16:9
Frame rate: 23.976 fps
Color space: YUV
Chroma subsampling: 4:2:0
Bit depth: 8 bits
Scan type: Progressive
Compression mode: Lossy
Bits/(Pixel*Frame): 0.182
Stream size: 612 MiB (88%)
Writing library: XviD 1.2.1 (UTC 2008-12-04)

Audio
ID: 1
Format: MPEG Audio
Format version: Version 1
Format profile: Layer 3
Mode: Joint stereo
Mode extension: MS Stereo
Codec ID: 55
Codec ID/Hint: MP3
Duration: 1h 27mn
Bit rate mode: Constant
Bit rate: 128 Kbps
Channel(s): 2 channels
Sampling rate: 48.0 KHz
Compression mode: Lossy
Stream size: 79.8 MiB (11%)
Alignment: Aligned on interleaves
Interleave, duration: 167 ms (4.00 video frames)
Interleave, preload duration: 216 ms
Title: The.Man.From.Earth.2007.720p.BluRay.x264-CiNEFiLE -, 1_audio
Writing library: LAME3.99r
Encoding settings: -m j -V 4 -q 2 -lowpass 17 -b 128
						
[ www.Torrenting.com ] - The.Man.From.Earth.2007.BRRip.Xvid.RoSubbed-playXD/First Read This Guide.txt 575 B
[ www.Torrenting.com ] - The.Man.From.Earth.2007.BRRip.Xvid.RoSubbed-playXD/The.Man.From.Earth.2007.BRRip.Xvid.RoSubbed-playXD-SAMPLE.mkv 11.081 MB
[ www.Torrenting.com ] - The.Man.From.Earth.2007.BRRip.Xvid.RoSubbed-playXD/The.Man.From.Earth.2007.BRRip.Xvid.RoSubbed-playXD.avi 729 MB
Gathering some info...

Register and log in Isohunt and see no captcha anymore!

4000 symbols left
Hash 45285b7c8e50b5c8dfd420dae3ec7e0268fe937a

Related torrents for "[ www.Torrenting.com ] - The.Man.From.Earth.2007.BRRip.Xvid.RoSubbed-playXD"

Torrent search:

2007 bd