episode16.avi

Size 456.162 MB   0 seeders     Added 2013-05-18 04:14:36

Stream torrent
Starting‥ You need BitLord! Get it from BitLord.com
To download or stream you need BitLord. Visit them at BitLord.com

Quote:
Plot:
Rick Grimes is a former Sheriff's deputy who has been in a coma for several months after being shot whilst on duty. When he wakes, he discovers that the world has been taken over by Zombies, and that he seems to be the only person still alive. Having returned home to discover his wife and son missing, he heads for Atlanta to search for his family. Narrowly escaping death at the hands of the Zombies on arrival in Atlanta, he is aided by another survivor Glenn who takes Rick to a camp outside the town. There Rick finds his wife Lori and son Carl. Along with his partner and best friend Shane, he founds a small group of survivors who struggle to fend off the zombie hordes, as well as competing with other survivor groups who are prepared to do whatever it takes to survive.


Quote:
Name: Walking Dead Season 3 Episode 16
Format:Avi
Uploader:Androidking
Size:435mb
Date:16/5/13
Resolution:1280*720
Encoder:Dubsteam

Video Quality:
ID : 0
Format : AVC
Format/Info : Advanced Video Codec
Format profile : Main@L5.1
Format settings, CABAC : Yes
Format settings, ReFrames : 1 frame
Codec ID : H264
Duration : 42mn 45s
Bit rate : 1 219 Kbps
Width : 1 280 pixels
Height : 720 pixels
Display aspect ratio : 16:9
Frame rate : 30.000 fps
Color space : YUV
Chroma subsampling : 4:2:0
Bit depth : 8 bits
Scan type : Progressive
Bits/(Pixel*Frame) : 0.044
Stream size : 373 MiB (86%)
Audio Quality:
ID : 1
Format : MPEG Audio
Format version : Version 1
Format profile : Layer 3
Codec ID : 55
Codec ID/Hint : MP3
Duration : 42mn 45s
Bit rate mode : Constant
Bit rate : 192 Kbps
Channel(s) : 2 channels
Sampling rate : 44.1 KHz
Compression mode : Lossy
Stream size : 58.7 MiB (13%)
Alignment : Split accross interleaves
Interleave, duration : 34 ms (1.02 video frame)
Interleave, preload duration : 109 ms
Writing library : LAMELAME_MAJOR_VERSI
episode16.avi 456.162 MB
Gathering some info...

Register and log in Isohunt and see no captcha anymore!

4000 symbols left
Hash f112f2d6b18b1860715b156d8b823fd624210330

Related torrents for "episode16.avi"