imdb
rating

4.9
Needle

Needle (2010)

Horror, Mystery, Thriller

Full description
quality   dvdrip dvdr fullhd x264 hd bd h264

Needle-wk3d.mp4

Size 746.169 MB   32 seeders     Added 2013-05-18 06:08:34

Stream torrent
Starting‥ You need BitLord! Get it from BitLord.com
To download or stream you need BitLord. Visit them at BitLord.com

After the death of his father, archaeology student Ben Rutherford inherits an 18th century mechanical device known as "Le Vaudo Mort". At a college party he flaunts the machine in front of a group of his closest friends and later discovers that the machine has a sinister past and may harbor supernatural powers. After class he returns to his dorm room to find that the contraption has been stolen. One by one, Ben's friends begin to die in strange and horrific circumstances. Now he must reunite with his estranged half-brother, Marcus, a forensic photographer, and delve deeper into their father's past to work out who is behind the grisly murders. As the terror mounts and the clues seem to suggest the unthinkable, a surprising twist will reveal the true identity of the killer...
Format                                   : MPEG-4
Format profile                           : Base Media / Version 2
Codec ID                                 : mp42
File size                                : 712 MiB
Duration                                 : 1h 29mn
Overall bit rate mode                    : Variable
Overall bit rate                         : 1 116 Kbps
Writing application                      : HandBrake 0.9.8 2012071700
Video
ID                                       : 1
Format                                   : AVC
Format/Info                              : Advanced Video Codec
Format profile                           : Main@L3.0
Format settings, CABAC                   : Yes
Format settings, ReFrames                : 4 frames
Codec ID                                 : avc1
Codec ID/Info                            : Advanced Video Coding
Duration                                 : 1h 29mn
Bit rate mode                            : Variable
Bit rate                                 : 950 Kbps
Width                                    : 640 pixels
Height                                   : 270 pixels
Display aspect ratio                     : 2.40:1
Frame rate mode                          : Variable
Frame rate                               : 30.000 fps
Minimum frame rate                       : 29.412 fps
Maximum frame rate                       : 30.303 fps
Color space                              : YUV
Chroma subsampling                       : 4:2:0
Bit depth                                : 8 bits
Scan type                                : Progressive
Bits/(Pixel*Frame)                       : 0.183
Stream size                              : 605 MiB (85%)
Writing library                          : x264 core 120
Audio
ID                                       : 2
Format                                   : AAC
Format/Info                              : Advanced Audio Codec
Format profile                           : LC
Codec ID                                 : 40
Duration                                 : 1h 29mn
Bit rate mode                            : Variable
Bit rate                                 : 160 Kbps
Maximum bit rate                         : 276 Kbps
Channel(s)                               : 2 channels
Channel positions                        : Front: L R
Sampling rate                            : 44.1 KHz
Compression mode                         : Lossy
Delay relative to video                  : 67ms
Stream size                              : 102 MiB (14%)
Needle-wk3d.mp4 746.169 MB
Gathering some info...

Register and log in Isohunt and see no captcha anymore!

4000 symbols left
Hash 8f145afa5ce6e8eb6562d0ee03124028f66f09d8

Related torrents for "Needle-wk3d.mp4"