Iron Man 2013 R6 Line XVID {1337x}-Hiest

Size 898.671 MB   2 seeders     Added 2013-05-18 13:39:35

Stream torrent
Starting‚Ä• You need BitLord! Get it from BitLord.com
To download or stream you need BitLord. Visit them at BitLord.com
							Torrent Stats
Posters:
Description:Iron Man 2013 R6 Line XVID {1337x}-Hiest
iNfo:
Format : AVI
Format/Info : Audio Video Interleave
File size : 857 MiB
Duration : 2h 2mn
Overall bit rate : 981 Kbps
Writing library : VirtualDub
Video
ID : 0
Format : MPEG-4 Visual
Format profile : Advanced Simple@L5
Format settings, BVOP : 2
Format settings, QPel : No
Format settings, GMC : No warppoints
Format settings, Matrix : Default (H.263)
Muxing mode : Packed bitstream
Codec ID : XVID
Codec ID/Hint : XviD
Duration : 2h 2mn
Bit rate : 841 Kbps
Width : 640 pixels
Height : 260 pixels
Display aspect ratio : 2.462
Frame rate : 29.970 fps
Color space : YUV
Chroma subsampling : 4:2:0
Bit depth : 8 bits
Scan type : Progressive
Compression mode : Lossy
Bits/(Pixel*Frame) : 0.169
Stream size : 735 MiB (86%)
Writing library : XviD 64
Audio
ID : 1
Format : MPEG Audio
Format version : Version 1
Format profile : Layer 3
Mode : Joint stereo
Mode extension : MS Stereo
Codec ID : 55
Codec ID/Hint : MP3
Duration : 2h 2mn
Bit rate mode : Constant
Bit rate : 128 Kbps
Channel(s) : 2 channels
Sampling rate : 48.0 KHz
Compression mode : Lossy
Stream size : 112 MiB (13%)
Alignment : Split accross interleaves
Interleave, duration : 33 ms (1.00 video frame)
Interleave, preload duration : 500 mshttp://www.imdb.com/title/tt1300854
Plot :
When Tony Stark's world is torn apart by a formidable terrorist called 
the Mandarin, he starts an odyssey of rebuilding and retribution.
Screen Shots:-Take a look at the trailer belowyoutube tag is disabledGreetings & Respect-
Velvetfog,MustangX,Neonrainbow,Catsout,Noir,SaM, Pitic,
Flex,Mattyboi1995, Stun,FASM,Adapa, Botzo,Deffjam555,
Stylishsalh,Twentyforty, RiddlerA,YIFY,DUBBY,ETRG,
SANTi, 26K, SAFCukO09,extremezone, froggie100,TvTeam,
HeroMaster,.BONE., GreatMagician,Dita and BlackJesus:)
Please Seed,
Enjoy ;)
						
Iron Man 2013 R6 Line XVID {1337x}-Hiest/1337x.org - Have a look.txt 538 B
Iron Man 2013 R6 Line XVID {1337x}-Hiest/Blazinseedboxes.com.txt 248 B
Iron Man 2013 R6 Line XVID {1337x}-Hiest/Iron Man 2013 R6 Line XVID {1337x}-Hiest.avi 898.67 MB
Gathering some info...

Register and log in Isohunt and see no captcha anymore!

4000 symbols left
Hash fe7a7624781a81f4f3ff5940ce4b7598ec76a5b2