imdb
rating

4.7
Stripped

Stripped (2013)

Comedy, Horror, Thriller

Full description

Stripped-wk3d.mp4

Size 695.761 MB   0 seeders     Added 2013-05-18 16:09:35

Stream torrent
Starting‥ You need BitLord! Get it from BitLord.com
To download or stream you need BitLord. Visit them at BitLord.com
Four friends head to Vegas for a 21st birthday in hopes of finding adventure, debauchery and memories that will last them a lifetime. Cameron, the scandalous one of the group decides to record the whole trip, determined to not forget the fiasco . A girlfriend of theirs begs for a ride, convincing them she will disappear as soon as they arrive. When they get to Vegas the guys devise an amazing plan for the night. Things take a turn for the worst when they call strippers that have them travel to a remote location. Little do they know, the strippers work for an organ trafficker. The guys fight for their lives, but eventually get Stripped.
Format                                   : MPEG-4
Format profile                           : Base Media / Version 2
Codec ID                                 : mp42
File size                                : 664 MiB
Duration                                 : 1h 19mn
Overall bit rate mode                    : Variable
Overall bit rate                         : 1 163 Kbps
Writing application                      : HandBrake 0.9.8 2012071700
Video
ID                                       : 1
Format                                   : AVC
Format/Info                              : Advanced Video Codec
Format profile                           : Main@L3.0
Format settings, CABAC                   : Yes
Format settings, ReFrames                : 4 frames
Codec ID                                 : avc1
Codec ID/Info                            : Advanced Video Coding
Duration                                 : 1h 19mn
Bit rate mode                            : Variable
Bit rate                                 : 1 000 Kbps
Width                                    : 640 pixels
Height                                   : 360 pixels
Display aspect ratio                     : 16:9
Frame rate mode                          : Constant
Frame rate                               : 25.000 fps
Color space                              : YUV
Chroma subsampling                       : 4:2:0
Bit depth                                : 8 bits
Scan type                                : Progressive
Bits/(Pixel*Frame)                       : 0.174
Stream size                              : 570 MiB (86%)
Writing library                          : x264 core 120
Audio
ID                                       : 2
Format                                   : AAC
Format/Info                              : Advanced Audio Codec
Format profile                           : LC
Codec ID                                 : 40
Duration                                 : 1h 19mn
Bit rate mode                            : Variable
Bit rate                                 : 160 Kbps
Maximum bit rate                         : 317 Kbps
Channel(s)                               : 2 channels
Channel positions                        : Front: L R
Sampling rate                            : 44.1 KHz
Compression mode                         : Lossy
Delay relative to video                  : 80ms
Stream size                              : 91.3 MiB (14%)
Stripped-wk3d.mp4 695.761 MB
Gathering some info...

Register and log in Isohunt and see no captcha anymore!

4000 symbols left
Hash 0fd0fda1556fc13bdd5300fd83f970d85eebcc02

Related torrents for "Stripped-wk3d.mp4"