imdb
rating

8.0
The Nightmare Before Christmas

The Nightmare Before Christmas (1993)

Animation, Fantasy, Family

Full description
quality   dvdrip bd x264 fullhd hd

The Nightmare Before Christmas 1993 1080p Multi AC3 5.1 BDRip - BrTN

Size 4.334 GB   0 seeders     Added 2013-05-18 19:58:36

Stream torrent
Starting‥ You need BitLord! Get it from BitLord.com
To download or stream you need BitLord. Visit them at BitLord.com
							Audio AC3 5.1@640kbps: English, French, German, Italian, SpanishSubs: English (muxed)
--------------------------------------------------------------More (in Folder): Danish, Dutch, English, Finnish, French, German, Icelandic, Italian, Norwegian, Spanish, Swedish - [.sub + idx] .zip (tested)
--------------------------------------------------------------
General
Format: Matroska
Format version: Version 4 / Version 2
File size: 3.96 GiB
Duration: 1h 16mn
Overall bit rate: 7 388 Kbps
Movie name: The_Nightmare_Before_Christmas_1993_1080p_Multi_AC3_51_BDRip_BrTN_miszczkurde
Encoded date: UTC 2013-05-18 12:02:39
Writing application : mkvmerge v6.1.0 ('Old Devil') built on Mar 2 2013 14:32:37
Writing library: libebml v1.3.0 + libmatroska v1.4.0
Video
ID: 1
Format: AVC
Format/Info: Advanced Video Codec
Duration: 1h 16mn
Bit rate: 4 041 Kbps
Width: 1 800 pixels
Height: 1 080 pixels
Frame rate: 23.976 fps
Scan type: Progressive
Stream size: 2.16 GiB (55%)
Writing library: x264 core 120
Language: English
Default: Yes
Audio #1
ID: 2
Format: AC-3
Format/Info: Audio Coding 3
Mode extension: CM (complete main)
Format settings, Endianness: Big
Codec ID: A_AC3
Duration: 1h 16mn
Bit rate mode: Constant
Bit rate: 640 Kbps
Channel(s): 6 channels
Channel positions: Front: L C R, Side: L R, LFE
Sampling rate: 48.0 KHz
Bit depth: 16 bits
Compression mode: Lossy
Stream size: 351 MiB (9%)
Title: AC3 5.1
Language: English
Default: Yes
Audio #2
ID: 3
Format: AC-3
Format/Info: Audio Coding 3
Mode extension: CM (complete main)
Format settings, Endianness: Big
Codec ID: A_AC3
Duration: 1h 16mn
Bit rate mode: Constant
Bit rate: 640 Kbps
Channel(s): 6 channels
Channel positions: Front: L C R, Side: L R, LFE
Sampling rate: 48.0 KHz
Bit depth: 16 bits
Compression mode: Lossy
Stream size: 351 MiB (9%)
Title: AC3 5.1
Language: French
Default: No
Audio #3
ID: 4
Format: AC-3
Format/Info: Audio Coding 3
Mode extension: CM (complete main)
Format settings, Endianness: Big
Codec ID: A_AC3
Duration: 1h 16mn
Bit rate mode: Constant
Bit rate: 640 Kbps
Channel(s): 6 channels
Channel positions: Front: L C R, Side: L R, LFE
Sampling rate: 48.0 KHz
Bit depth: 16 bits
Compression mode: Lossy
Stream size: 351 MiB (9%)
Title: AC3 5.1
Language: German
Default: No
Audio #4
ID: 5
Format: AC-3
Format/Info: Audio Coding 3
Mode extension: CM (complete main)
Format settings, Endianness: Big
Codec ID: A_AC3
Duration: 1h 16mn
Bit rate mode: Constant
Bit rate: 640 Kbps
Channel(s): 6 channels
Channel positions: Front: L C R, Side: L R, LFE
Sampling rate: 48.0 KHz
Bit depth: 16 bits
Compression mode: Lossy
Stream size: 351 MiB (9%)
Title: AC3 5.1
Language: Italian
Default: No
Audio #5
ID: 6
Format: AC-3
Format/Info: Audio Coding 3
Mode extension: CM (complete main)
Format settings, Endianness: Big
Codec ID: A_AC3
Duration: 1h 16mn
Bit rate mode: Constant
Bit rate: 640 Kbps
Channel(s): 6 channels
Channel positions: Front: L C R, Side: L R, LFE
Sampling rate: 48.0 KHz
Bit depth: 16 bits
Compression mode: Lossy
Stream size: 351 MiB (9%)
Title: AC3 5.1
Language: Spanish
Default: No
Text
ID: 7
Format: UTF-8
Codec ID: S_TEXT/UTF8
Codec ID/Info: UTF-8 Plain Text
Language: English
Default: No
--------------------------------------------------------------
Screenshots:
The Nightmare Before Christmas 1993 1080p Multi AC3 5.1 BDRip - BrTN/More Subs/German.zip 2.151 MB
The Nightmare Before Christmas 1993 1080p Multi AC3 5.1 BDRip - BrTN/More Subs/Spanish.zip 1.953 MB
The Nightmare Before Christmas 1993 1080p Multi AC3 5.1 BDRip - BrTN/More Subs/Icelandic.zip 1.928 MB
Gathering some info...

Register and log in Isohunt and see no captcha anymore!

4000 symbols left
Hash 8895cab6e5d44074e5ee82efb726e0d08d6a69f7

Related torrents for "The Nightmare Before Christmas 1993 1080p Multi AC3 5.1 BDRip - BrTN"

Torrent search:

1993 fullhd bd