imdb
rating

7.2
The Man in the Gray Flannel Suit

The Man in the Gray Flannel Suit (1956)

Drama

Full description
quality   dvdrip

The Man In The Gray Flannel Suit [1956] Nunnally Johnson.mkv

Size 536.365 MB   0 seeders     Added 2013-05-19 00:20:34

Stream torrent
Starting‥ You need BitLord! Get it from BitLord.com
To download or stream you need BitLord. Visit them at BitLord.com
							::Release Info::Release Title: The Man In The Gray Flannel Suit [1956] Nunnally Johnson Encode date:  ::IMDB and TMDB Info::TMDB Link:http://www.themoviedb.org/movie/28290IMDB Link:http://www.imdb.com/title/tt0049474Storyline:Tom Rath lives in Connecticut and commutes to work every day in Manhattan. He's happily married and has a loving wife and three children. Money is a bit tight and when the opportunity arises, he applies for a public relations job with a major television network. During his long commute to work everyday, Tom reminisces about the war. Although 10 years have gone by, he is still haunted by the violence and the men he killed. He also thinks of Maria, an Italian girl with whom he had an affair while stationed in Rome. At his new job, the head of the network Ralph Hopkins takes an immediate liking to him. Tom soon realizes that he will have to choose between becoming a wholly dedicated company man or maintaining a healthy work-life balance. When he learns that Maria gave birth to his son after he left Italy, he decides to let his wife know and ensure that the boy is cared for. Genre:Drama | War Release date:08/05/1956 ::Actors::Gregory Peck ... Tom RathJennifer Jones ... Betsy RathFredric March ... Ralph HopkinsMarisa Pavan ... Maria MontagneLee J. Cobb ... Judge BernsteinAnn Harding ... Helen HopkinsKeenan Wynn ... Sgt. Caesar GardellaGene Lockhart ... Bill HawthorneGigi Perreau ... Susan HopkinsPortland Mason ... Janey RathArthur O'Connell ... Gordon WalkerHenry Daniell ... Bill OgdenGeneral
Complete name : The Man In The Gray Flannel Suit [1956] Nunnally Johnson.mkv
Format : WebM
Format version : Version 2
File size : 512 MiB
Duration : 2h 33mn
Overall bit rate mode : Variable
Overall bit rate : 467 Kbps
Writing application : google
Writing library : googleVideo
ID : 1
Format : VP8
Codec ID : V_VP8
Duration : 2h 33mn
Bit rate : 312 Kbps
Width : 854 pixels
Height : 480 pixels
Display aspect ratio : 16:9
Frame rate : 29.970 fps
Compression mode : Lossy
Bits/(Pixel*Frame) : 0.025
Stream size : 341 MiB (67%)
Language : EnglishAudio
ID : 2
Format : Vorbis
Format settings, Floor : 1
Codec ID : A_VORBIS
Duration : 2h 33mn
Bit rate mode : Variable
Bit rate : 128 Kbps
Channel(s) : 2 channels
Sampling rate : 44.1 KHz
Compression mode : Lossy
Stream size : 140 MiB (27%)
Language : English
						
The Man In The Gray Flannel Suit [1956] Nunnally Johnson.mkv 536.365 MB
Gathering some info...

Register and log in Isohunt and see no captcha anymore!

4000 symbols left
Hash 60588b82321933cf19590cd9f1fc4240d31c7061

Related torrents for "The Man In The Gray Flannel Suit [1956] Nunnally Johnson.mkv"

Torrent search:

1956