imdb
rating

7.8
Blazing Saddles

Blazing Saddles (1974)

Comedy, Western

Full description
quality   dvdrip x264 bd fullhd hd h264

Blazing Saddles (1974) DVDRip XviD AC3 peaSoup

Size 909.771 MB   1 seeders     Added 2013-05-19 01:50:51

Stream torrent
Starting‥ You need BitLord! Get it from BitLord.com
To download or stream you need BitLord. Visit them at BitLord.com
List:
http://www.imdb.com/title/tt0071230/
List:
List:
The Ultimate Western Spoof. A town where everyone seems to be named Johnson is in the way of the railroad. In order to grab their land, Hedley Lemar, a politically connected nasty person, sends in his henchmen to make the town unlivable. After the sheriff is killed, the town demands a new sheriff from the Governor. Hedley convinces him to send the town the first Black sheriff in the west. Bart is a sophisticated urbanite who will have some difficulty winning over the townspeople.
List:

List:
Format : AVI
Format/Info : Audio Video Interleave
File size : 830 MiB
Duration : 1h 29mn
Overall bit rate : 1 303 Kbps
Movie name : Blazing Saddles (1974) DVDRip XviD AC3 peaSoup
Writing application : Lavf53.21.0
Original source form/Name : BLAZING_SADDLES_16X9_PAL4_LF1
Video
ID : 0
Format : MPEG-4 Visual
Format profile : Advanced Simple@L5
Format settings, BVOP : 2
Format settings, QPel : No
Format settings, GMC : No warppoints
Format settings, Matrix : Default (H.263)
Muxing mode : Packed bitstream
Codec ID : XVID
Codec ID/Hint : XviD
Duration : 1h 29mn
Bit rate : 1 101 Kbps
Width : 720 pixels
Height : 306 pixels
Display aspect ratio : 2.35:1
Frame rate : 25.000 fps
Color space : YUV
Chroma subsampling : 4:2:0
Bit depth : 8 bits
Scan type : Progressive
Compression mode : Lossy
Bits/(Pixel*Frame) : 0.200
Stream size : 701 MiB (84%)
Writing library : XviD 1.2.1 (UTC 2008-12-04)
Audio
ID : 1
Format : AC-3
Format/Info : Audio Coding 3
Mode extension : CM (complete main)
Format settings, Endianness : Big
Codec ID : 2000
Duration : 1h 29mn
Bit rate mode : Constant
Bit rate : 192 Kbps
Channel(s) : 1 channel
Channel positions : Front: C
Sampling rate : 48.0 KHz
Bit depth : 16 bits
Compression mode : Lossy
Stream size : 122 MiB (15%)
Alignment : Aligned on interleaves
Interleave, duration : 32 ms (0.80 video frame)
Blazing Saddles (1974) DVDRip XviD AC3 peaSoup/Blazing Saddles (1974) DVDRip XviD AC3 peaSoup.avi 870.244 MB
Blazing Saddles (1974) DVDRip XviD AC3 peaSoup/Blazing Saddles (1974) DVDRip XviD AC3 peaSoup.idx 607.515 KB
Blazing Saddles (1974) DVDRip XviD AC3 peaSoup/Blazing Saddles (1974) DVDRip XviD AC3 peaSoup.sub 38.92 MB
Gathering some info...

Register and log in Isohunt and see no captcha anymore!

4000 symbols left
Hash 704ee6bc0d6db8bcae5d162298c50a981c9886ba

Related torrents for "Blazing Saddles (1974) DVDRip XviD AC3 peaSoup"

Torrent search:

dvdrip 1974