Sawaar Loon - Official Full Song - Lootera 2013 720p HD x264 AAC - SceneDL (PimpRG) Verified

Size 25.702 MB   0 seeders     Added 2013-05-19 02:01:50

Stream torrent
Starting‚Ä• You need BitLord! Get it from 1BitLord.com
To download or stream you need BitLord. Visit them at BitLord.com
RG Banner: image

Cover:
 
image

Screencaps:
 
image

Sawaar Loon - Official Full Song - Lootera 2013 720p HD x264 AAC - SceneDL

Code:
General
Complete name : Sawaar Loon - Official Full Song - Lootera 2013 720p HD x264 AAC - SceneDL.MP4
Format : MPEG-4
Format profile : Base Media
Codec ID : isom
File size : 24.5 MiB
Duration : 2mn 20s
Overall bit rate mode : Variable
Overall bit rate : 1 461 Kbps
Writing application : Lavf53.31.100

Video
ID : 1
Format : AVC
Format/Info : Advanced Video Codec
Format profile : High@L3.1
Format settings, CABAC : Yes
Format settings, ReFrames : 1 frame
Codec ID : avc1
Codec ID/Info : Advanced Video Coding
Duration : 2mn 20s
Bit rate : 1 329 Kbps
Width : 1 280 pixels
Height : 720 pixels
Display aspect ratio : 16:9
Frame rate mode : Variable
Frame rate : 25.000 fps
Minimum frame rate : 12.500 fps
Maximum frame rate : 25.000 fps
Color space : YUV
Chroma subsampling : 4:2:0
Bit depth : 8 bits
Scan type : Progressive
Bits/(Pixel*Frame) : 0.058
Stream size : 22.3 MiB (91%)

Audio
ID : 2
Format : AAC
Format/Info : Advanced Audio Codec
Format profile : LC
Codec ID : 40
Duration : 2mn 20s
Bit rate mode : Variable
Bit rate : 126 Kbps
Maximum bit rate : 128 Kbps
Channel(s) : 2 channels
Channel positions : Front: L R
Sampling rate : 44.1 KHz
Compression mode : Lossy
Stream size : 2.12 MiB (9%)


By:

SceneDL		
Sawaar Loon - Official Full Song - Lootera 2013 720p HD x264 AAC - SceneDL (PimpRG)/Sawaar Loon - Official Full Song - Lootera 2013 720p HD x264 AAC - SceneDL.mp4 25.702 MB
Gathering some info...

Register and log in Isohunt and see no captcha anymore!

4000 symbols left
Hash 3478a9ebd2628f7fb772a0986dbda5ba7c1d16ed