Quiz Show 1994 720p BRRip x264 Repack MP4 AAC-CC

Size 3.309 GB   0 seeders     Added 2013-05-19 02:17:38

Stream torrent
Starting‚Ä• You need BitLord! Get it from 1BitLord.com
To download or stream you need BitLord. Visit them at BitLord.com
 http://www.imdb.com/title/tt0110932/

Source: Quiz.Show.1994.1080p.BluRay.x264-PFa Thanks!

Subs: Brazilian, Danish, Dutch, English, Portuguese, Slovenian, Spanish, Turkish.

Sample and Screens included.

General
Complete name                            : Quiz Show 1994 720p BRRip x264 Repack MP4 AAC-CC.mp4
Format                                   : MPEG-4
Format profile                           : Base Media
Codec ID                                 : isom
File size                                : 3.04 GiB
Duration                                 : 2h 12mn
Overall bit rate mode                    : Variable
Overall bit rate                         : 3 278 Kbps
Encoded date                             : UTC 2013-05-12 15:33:25
Tagged date                              : UTC 2013-05-12 15:33:25
Writing application                      : Yamb 2.1.0.0 

Video
ID                                       : 1
Format                                   : AVC
Format/Info                              : Advanced Video Codec
Format profile                           : High@L4.1
Format settings, CABAC                   : Yes
Format settings, ReFrames                : 5 frames
Codec ID                                 : avc1
Codec ID/Info                            : Advanced Video Coding
Duration                                 : 2h 12mn
Bit rate                                 : 2 915 Kbps
Maximum bit rate                         : 13.4 Mbps
Width                                    : 1 280 pixels
Height                                   : 688 pixels
Display aspect ratio                     : 1.85:1
Frame rate mode                          : Variable
Frame rate                               : 23.976 fps
Minimum frame rate                       : 23.810 fps
Maximum frame rate                       : 24.390 fps
Color space                              : YUV
Chroma subsampling                       : 4:2:0
Bit depth                                : 8 bits
Scan type                                : Progressive
Bits/(Pixel*Frame)                       : 0.138
Stream size                              : 2.68 GiB (88%)
Writing library                          : x264 core 112
Encoding settings                        : cabac=1 / ref=5 / deblock=1:0:0 / analyse=0x3:0x113 / me=hex / subme=7 / psy=1 / psy_rd=1.00:0.00 / mixed_ref=1 / me_range=16 / chroma_me=1 / trellis=1 / 8x8dct=1 / cqm=0 / deadzone=21,11 / fast_pskip=1 / chroma_qp_offset=-2 / threads=3 / sliced_threads=0 / nr=0 / decimate=1 / interlaced=0 / constrained_intra=0 / bframes=5 / b_pyramid=2 / b_adapt=2 / b_bias=0 / direct=1 / weightb=1 / open_gop=0 / weightp=2 / keyint=240 / keyint_min=24 / scenecut=40 / intra_refresh=0 / rc_lookahead=50 / rc=abr / mbtree=1 / bitrate=2915 / ratetol=1.0 / qcomp=0.60 / qpmin=3 / qpmax=51 / qpstep=4 / ip_ratio=1.40 / aq=1:1.00
Encoded date                             : UTC 2013-05-12 20:57:05
Tagged date                              : UTC 2013-05-12 15:37:58
Color primaries                          : BT.709
Transfer characteristics                 : BT.709
Matrix coefficients                      : BT.709

Audio
ID                                       : 2
Format                                   : AAC
Format/Info                              : Advanced Audio Codec
Format profile                           : LC
Codec ID                                 : 40
Duration                                 : 2h 12mn
Bit rate mode                            : Variable
Bit rate                                 : 384 Kbps
Maximum bit rate                         : 522 Kbps
Channel(s)                               : 6 channels
Channel positions                        : Front: L C R, Side: L R, LFE
Sampling rate                            : 48.0 KHz
Compression mode                         : Lossy
Delay relative to video                  : 83ms
Stream size                              : 364 MiB (12%)
Encoded date                             : UTC 2013-05-12 15:37:00
Tagged date                              : UTC 2013-05-12 15:37:58

#Notes: First source has some glitches in it.Thats why i released this Repack.

Enjoy...

Requested by mrmuvis 

Coming soon: The Secret in Their Eyes, Shadows of A Doubt, La Haine and more...		
Quiz Show 1994 720p BRRip x264 Repack MP4 AAC-CC/Sample/Sample.mp4 32.071 MB
Quiz Show 1994 720p BRRip x264 Repack MP4 AAC-CC/Screens-Info/Quiz Show 1994 720p BRRip x264 Repack MP4 AAC-CC.mp4_snapshot_00.28.37.png 1.556 MB
Quiz Show 1994 720p BRRip x264 Repack MP4 AAC-CC/Screens-Info/Quiz Show 1994 720p BRRip x264 Repack MP4 AAC-CC.mp4_snapshot_01.10.21.png 1.323 MB
Gathering some info...

Register and log in Isohunt and see no captcha anymore!

4000 symbols left
Hash 68cff667f0a99165be318b9c613263514ecfc59a