imdb
rating

7.2
Fast & Furious 6

Fast & Furious 6 (2013)

Action, Crime, Thriller

Full description

Fast And Furious 6 2013 CAM XviD-SSDD

Size 1.476 GB   168 seeders     Added 2013-05-19 03:01:37

Stream torrent
Starting‥ You need BitLord! Get it from BitLord.com
To download or stream you need BitLord. Visit them at BitLord.com

 
http://www.imdb.com/title/tt1905041/



Plot: Agent Luke Hobbs enlists Dominic Toretto and his team to bring down former Special Ops soldier Owen Shaw, leader of a unit specializing in vehicular warfare. 



Director:
 Justin Lin 

Writers:
 Chris Morgan (screenplay), Gary Scott Thompson (characters) 

Stars:
 Dwayne Johnson, Vin Diesel, Paul Walker

Genres:
  Action |  Crime |  Thriller 

Country:
 USA 

Language:
 English 


Source - Fast.And.Furious.6.2013.720p.CAM-TheCod3r (Many Thanks)

 NOTES - Enjoy. Ran a smoother over this to try and eliminate the blocking as best i could, changed frame rate to 25, resized to 720 x 352 also cropped where i could but theres still camera movement and some black bars in parts.

 General
 Complete name                            : Fast And Furious 6 2013 CAM XviD-SSDD.avi
 Format                                   : AVI
 Format/Info                              : Audio Video Interleave
 File size                                : 1.37 GiB
 Duration                                 : 2h 0mn
 Overall bit rate                         : 1 630 Kbps
 Writing library                          : VirtualDub build 32842/release

 Video
 ID                                       : 0
 Format                                   : MPEG-4 Visual
 Format profile                           : Advanced Simple@L5
 Format settings, BVOP                    : 2
 Format settings, QPel                    : No
 Format settings, GMC                     : No warppoints
 Format settings, Matrix                  : Default (H.263)
 Muxing mode                              : Packed bitstream
 Codec ID                                 : XVID
 Codec ID/Hint                            : XviD
 Duration                                 : 2h 0mn
 Bit rate                                 : 1 492 Kbps
 Width                                    : 720 pixels
 Height                                   : 352 pixels
 Display aspect ratio                     : 2.045
 Frame rate                               : 25.000 fps
 Color space                              : YUV
 Chroma subsampling                       : 4:2:0
 Bit depth                                : 8 bits
 Scan type                                : Progressive
 Compression mode                         : Lossy
 Bits/(Pixel*Frame)                       : 0.235
 Stream size                              : 1.26 GiB (92%)
 Writing library                          : XviD 64

 Audio
 ID                                       : 1
 Format                                   : MPEG Audio
 Format version                           : Version 1
 Format profile                           : Layer 3
 Mode                                     : Joint stereo
 Mode extension                           : MS Stereo
 Codec ID                                 : 55
 Codec ID/Hint                            : MP3
 Duration                                 : 2h 0mn
 Bit rate mode                            : Constant
 Bit rate                                 : 128 Kbps
 Channel(s)                               : 2 channels
 Sampling rate                            : 48.0 KHz
 Compression mode                         : Lossy
 Stream size                              : 111 MiB (8%)
 Alignment                                : Split accross interleaves
 Interleave, duration                     : 40 ms (1.00 video frame)
 Interleave, preload duration             : 500 ms




screens



    	image
    	image
    	image
    	image
    	image
    	image		
Fast And Furious 6 2013 CAM XviD-SSDD/Fast And Furious 6 2013 CAM XviD-SSDD.avi 1.476 GB
Fast And Furious 6 2013 CAM XviD-SSDD/Torrent Downloaded From ExtraTorrent.com.txt 353 B
Gathering some info...

Register and log in Isohunt and see no captcha anymore!

4000 symbols left
Hash 7a5c8bb9beebc79617a790ffa3ee8e901c694d36

Related torrents for "Fast And Furious 6 2013 CAM XviD-SSDD"

Torrent search:

cam 2013