Fast.And.Furious.6.2013.READNFO.CAM.XViD.UNiQUE

Size 1.543 GB   0 seeders     Added 2013-05-19 04:31:36

Stream torrent
Starting‥ You need BitLord! Get it from BitLord.com
To download or stream you need BitLord. Visit them at BitLord.com
 
http://www.imdb.com/title/tt1905041/



Plot: Agent Luke Hobbs enlists Dominic Toretto and his team to bring down former Special Ops soldier Owen Shaw, leader of a unit specializing in vehicular warfare. 



Director:
 Justin Lin 

Writers:
 Chris Morgan (screenplay), Gary Scott Thompson (characters) 

Stars:
 Dwayne Johnson, Vin Diesel, Paul Walker

Genres:
  Action |  Crime |  Thriller 

Country:
 USA 

Language:
 English 




 Format                                   : AVI
 Format/Info                              : Audio Video Interleave
 File size                                : 1.42 GiB
 Duration                                 : 2h 0mn
 Overall bit rate                         : 1 687 Kbps
 Writing application                      : VirtualDubMod 1.5.10.2 (build 2540/release)
 Writing library                          : VirtualDubMod build 2540/release

 Video
 ID                                       : 0
 Format                                   : MPEG-4 Visual
 Format profile                           : Advanced Simple@L5
 Format settings, BVOP                    : 2
 Format settings, QPel                    : No
 Format settings, GMC                     : No warppoints
 Format settings, Matrix                  : Default (H.263)
 Muxing mode                              : Packed bitstream
 Codec ID                                 : XVID
 Codec ID/Hint                            : XviD
 Duration                                 : 2h 0mn
 Bit rate                                 : 1 540 Kbps
 Width                                    : 682 pixels
 Height                                   : 298 pixels
 Display aspect ratio                     : 2.25:1
 Frame rate                               : 50.000 fps
 Color space                              : YUV
 Chroma subsampling                       : 4:2:0
 Bit depth                                : 8 bits
 Scan type                                : Progressive
 Compression mode                         : Lossy
 Bits/(Pixel*Frame)                       : 0.152
 Stream size                              : 1.30 GiB (91%)
 Writing library                          : XviD 64

 Audio
 ID                                       : 1
 Format                                   : MPEG Audio
 Format version                           : Version 1
 Format profile                           : Layer 3
 Codec ID                                 : 55
 Codec ID/Hint                            : MP3
 Duration                                 : 2h 0mn
 Bit rate mode                            : Constant
 Bit rate                                 : 128 Kbps
 Channel(s)                               : 2 channels
 Sampling rate                            : 48.0 KHz
 Compression mode                         : Lossy
 Stream size                              : 110 MiB (8%)
 Alignment                                : Split accross interleaves
 Interleave, duration                     : 20 ms (1.00 video frame)
 Interleave, preload duration             : 500 ms



 
http://www.imdb.com/title/tt1905041/

 Since Dom (Diesel) and Brian's (Walker) Rio heist toppled a kingpin's empire and left their crew with $100 million, our heroes have scattered across the globe. But their inability to return home and living forever on the lam have left their lives incomplete. Meanwhile, Hobbs (Johnson) has been tracking an organization of lethally skilled mercenary drivers across 12 countries, whose mastermind (Evans) is aided by a ruthless second-in-command revealed to be the love Dom thought was dead, Letty (Rodriguez). The only way to stop the criminal outfit is to outmatch them at street level, so Hobbs asks Dom to assemble his elite team in London. Payment? Full pardons for all of them so they can return home and make their families whole again.





 Source Used

 Movie/HD/Bluray Fast And Furious 6 2013 720p CAM-TheCod3r /Thanks

 Video has alot of movement so cropped away what i believed was the most i could without losing too much due to the movement..........Work done well check the sample and see i did start cutting n sorting movement but as another source is gonna drop i stopped 







    	image
    	image
    	image
    	image
    	image
    	image		
Fast.And.Furious.6.2013.READNFO.CAM.XViD.UNiQUE/Fast.And.Furious.6.2013.READNFO.CAM.XViD.UNiQUE.avi 1.528 GB
Fast.And.Furious.6.2013.READNFO.CAM.XViD.UNiQUE/Sample.avi 14.789 MB
Fast.And.Furious.6.2013.READNFO.CAM.XViD.UNiQUE/Torrent Downloaded From ExtraTorrent.com.txt 353 B
Gathering some info...

Register and log in Isohunt and see no captcha anymore!

4000 symbols left
Hash 54fe5c4c4329ba8100673b9035a1b54ae20c4c07

Related torrents for "Fast.And.Furious.6.2013.READNFO.CAM.XViD.UNiQUE"

Torrent search:

cam 2013