The Island

The Island (2007)

Full description

Arrow - The Island.mp4

Size 994.761 MB   1 seeders     Added 2013-05-19 05:50:54

Stream torrent
Starting‥ You need BitLord! Get it from 1BitLord.com
To download or stream you need BitLord. Visit them at BitLord.com
I decided to make a compilation of all the (84) scenes of the flashbacks of the Island Lian Yu from season 1 of Arrow, a download of Adobe Premiere and 6 hours later and I think it turned out pretty good so I decided to upload it.
Please feel free to upload it anywhere else you choose, I will only be uploading it here as I am too lazy to upload it to multiple places.
General
Complete name : D:DownloadsCompleteArrow - The Island.mp4
Format : MPEG-4
Codec ID : M4V 
File size : 949 MiB
Duration : 1h 45mn
Overall bit rate mode : Variable
Overall bit rate : 1 255 Kbps
Encoded date : UTC 2013-05-17 21:55:44
Tagged date : UTC 2013-05-17 21:55:44
Video
ID : 1
Format : AVC
Format/Info : Advanced Video Codec
Format profile : [email protected]
/*  */

Format settings, CABAC : No
Format settings, ReFrames : 2 frames
Codec ID : avc1
Codec ID/Info : Advanced Video Coding
Duration : 1h 45mn
Source duration : 1h 45mn
Bit rate mode : Variable
Bit rate : 1 095 Kbps
Width : 720 pixels
Height : 404 pixels
Display aspect ratio : 16:9
Frame rate mode : Variable
Frame rate : 23.976 fps
Minimum frame rate : 23.976 fps
Maximum frame rate : 24.000 fps
Standard : NTSC
Color space : YUV
Chroma subsampling : 4:2:0
Bit depth : 8 bits
Scan type : Progressive
Bits/(Pixel*Frame) : 0.157
Stream size : 828 MiB (87%)
Source stream size : 828 MiB (87%)
Language : English
Encoded date : UTC 2013-05-17 21:55:44
Tagged date : UTC 2013-05-17 21:55:44
mdhd_Duration : 6339375
Audio
ID : 2
Format : AAC
Format/Info : Advanced Audio Codec
Format profile : LC
Codec ID : 40
Duration : 1h 45mn
Source duration : 1h 45mn
Bit rate mode : Variable
Bit rate : 158 Kbps
Maximum bit rate : 254 Kbps
Channel(s) : 2 channels
Channel positions : Front: L R
Sampling rate : 44.1 KHz
Compression mode : Lossy
Stream size : 119 MiB (13%)
Source stream size : 119 MiB (13%)
Language : English
Encoded date : UTC 2013-05-17 21:55:44
Tagged date : UTC 2013-05-17 21:55:44
mdhd_Duration : 63
Arrow - The Island.mp4 994.761 MB
Gathering some info...

Register and log in Isohunt and see no captcha anymore!

4000 symbols left
Hash af991107afd35b7e7e13a03d99665137a4ed2e32

Related torrents for "Arrow - The Island.mp4"