imdb
rating

6.1
Hansel & Gretel: Witch Hunters

Hansel & Gretel: Witch Hunters (2013)

Action, Fantasy, Horror

Full description
quality   bd dvdrip x264 hd dvdr

Hansel and Gretel Witch Hunters 2013 UNRATED 1080p x264 - alrmothe

Size 7.141 GB   0 seeders     Added 2013-05-19 07:50:27

Stream torrent
Starting‥ You need BitLord! Get it from BitLord.com
To download or stream you need BitLord. Visit them at BitLord.com
.
Movies : Action : BluRay : English
Hansel and Gretel Witch Hunters 2013 UNRATED 1080p x264 - alrmothe 
IMDB:
http://www.imdb.com/title/tt1235522/
Genre: Action,Fantasy,Horror
Source:Blu-ray Disc
Language:English
File size:6.03 GiB
Overall bit rate:9645 kbps
Duration:1h 37mn
Encoded / Released By:alrmothe
Storyline:The siblings Hansel and Gretel are left alone in the woods by their father and captured by a dark witch in a candy house. However they kill the witch and escape from the spot. Years later, the orphans have become famous witch hunters. When eleven children go missing in a small village, the Major summons Hansel and Gretel to rescue them, and they save the red haired Mina from the local sheriff that wants to burn her accusing Mina of witchcraft. Soon they discover that the Blood Moon will approach in three days and the powerful dark witch Muriel is the responsible for the abduction of children. She intends to use the children together with a secret ingredient in a Sabbath to make the coven of witches protected against the fire. Meanwhile Hansel and Gretel disclose secrets about their parents..
cast
Jeremy Renner ... Hansel
Gemma Arterton ... Gretel
Famke Janssen ... Muriel
Pihla Viitala ... Mina
Derek Mears ... Edward
Robin Atkin Downes... Edward (voice)
Ingrid Bolsø Berdal... Horned Witch
Joanna Kulig ... Red Haired Witch
Thomas Mann ... Ben
Peter Stormare ... Sheriff Berringer
Bjørn Sundquist ... Jackson
Rainer Bock ... Mayor Engleman
Thomas Scharff ... Father
Kathrin Kühnel ... Adrianna
Cedric Eich ... Young Hansel
Alea Sophia Boudodimos...Young Gretel
Video Information
Format Matroska
Format : AVC 
Format/Info : Advanced Video Codec 
Format profile : [email protected]
/*  */

Format settings, CABAC : Yes 
Format settings, ReFrames : 2 frames 
Codec ID : V_MPEG4/ISO/AVC 
Bit rate: 9000Kbps 
Display aspect ratio 2:40:1 
Frame rate : 23.976 fps 
Color space : YUV 
Chroma subsampling : 4:2:0 
Bit depth : 8 bits 
Scan type : Progressive 
Bits/(Pixel*Frame) : 0.244 
Stream size: 6.03 GiB 
Resolution:1920x800
Audio Information:
Format: AC3
Bit rate 640 Kbps
Channel(s) : 6 channels
Channel positions:Front: L C R, Side: L R, LFE
Sampling rate: 48.0 KHz
Bit depth: 16 bits
Compression mode: Lossy
Stream size:448 GiB
Language:English
sample:yes
SUB:Arabic,English
Screenshots
image
Use KMPlayer for the best quality
Code:

http://fr33dom.h33t.com:3310/announce
http://121.14.98.151:9090/announce
http://tracker.torrentbay.to:6969/announce
http://exodus.desync.com:6969/announce
http://94.228.192.98/announce
http://tracker.coppersurfer.tk:6969/announce
udp://tracker.istole.it:80/announce
udp://fr33dom.h33t.com:3310/announce
Trailer
http://www.youtube.com/watch?v=9246msCh7x4 
[video]http://www.youtube.com/watch?v=9246msCh7x4[/video]
Hansel and Gretel Witch Hunters 2013 UNRATED 1080p x264 - alrmothe/sub/English.srt 76.342 KB
Hansel and Gretel Witch Hunters 2013 UNRATED 1080p x264 - alrmothe/sub/Arabic.srt 62.373 KB
Hansel and Gretel Witch Hunters 2013 UNRATED 1080p x264 - alrmothe/torrent sites info/Torrent Downloaded From ExtraTorrent.txt 95 B
Gathering some info...

Register and log in Isohunt and see no captcha anymore!

4000 symbols left
Hash f3faee2968133237aff635cc79922f357985c963

Related torrents for "Hansel and Gretel Witch Hunters 2013 UNRATED 1080p x264 - alrmothe"

Torrent search:

x264 fullhd 2013