imdb
rating

4.6
Dark Ride

Dark Ride (2006)

Horror, Thriller

Full description
quality   dvdrip bd x264 hd

Dark Ride (2006)-wk3d.mp4

Size 1.127 GB   7 seeders     Added 2013-05-19 08:07:36

Stream torrent
Starting‥ You need BitLord! Get it from 1BitLord.com
To download or stream you need BitLord. Visit them at BitLord.com

A group of six friends on a road trip stop off at an amusement park attraction named 'Dark Ride', unaware that a psychopath who brutally murdered two girls, has just escaped a mental institution and is seeking refuge there.
Format                                   : MPEG-4
Format profile                           : Base Media / Version 2
Codec ID                                 : mp42
File size                                : 1.05 GiB
Duration                                 : 1h 30mn
Overall bit rate mode                    : Variable
Overall bit rate                         : 1 665 Kbps
Writing application                      : HandBrake 0.9.8 2012071700
Video
ID                                       : 1
Format                                   : AVC
Format/Info                              : Advanced Video Codec
Format profile                           : Main@L2.1
Format settings, CABAC                   : Yes
Format settings, ReFrames                : 4 frames
Codec ID                                 : avc1
Codec ID/Info                            : Advanced Video Coding
Duration                                 : 1h 30mn
Bit rate mode                            : Variable
Bit rate                                 : 1 500 Kbps
Width                                    : 592 pixels
Height                                   : 336 pixels
Display aspect ratio                     : 16:9
Frame rate mode                          : Constant
Frame rate                               : 25.000 fps
Color space                              : YUV
Chroma subsampling                       : 4:2:0
Bit depth                                : 8 bits
Scan type                                : Progressive
Bits/(Pixel*Frame)                       : 0.302
Stream size                              : 969 MiB (90%)
Writing library                          : x264 core 120
Audio
ID                                       : 2
Format                                   : AAC
Format/Info                              : Advanced Audio Codec
Format profile                           : LC
Codec ID                                 : 40
Duration                                 : 1h 30mn
Bit rate mode                            : Variable
Bit rate                                 : 160 Kbps
Maximum bit rate                         : 209 Kbps
Channel(s)                               : 2 channels
Channel positions                        : Front: L R
Sampling rate                            : 44.1 KHz
Compression mode                         : Lossy
Delay relative to video                  : 80ms
Stream size                              : 103 MiB (10%)
Dark Ride (2006)-wk3d.mp4 1.127 GB
Gathering some info...

Register and log in Isohunt and see no captcha anymore!

4000 symbols left
Hash d82cc6169e30e0aa82e87cb5785b869635b62343

Related torrents for "Dark Ride (2006)-wk3d.mp4"

Torrent search:

2006